&title=Music S.T.A.R.T!!
&artist=μ's
&first=1.41
&des=MiraT
&lv_5=13
&inote_5=(168)
{4}2h[2:1],,3h[2:1],,4h[2:1],,{8}7,8,1,2,{4}5h[1:1],E1,E7,E5,E3,,
{4}31,28,1x/7x,,45,36,2x/7x,,5,2,7,6,3,5,
{8}4h[8:7],,,5,5h[8:3],,,,{4}3>5[4:6]/6<4[4:6],,,,,,,,
{8}E2/B2,E8/B7,E4/B4,E6/B5,{16}2h[16:3],,,7h[16:3],,,1h[8:2],,,,8,,8,,
{16}1,8,1,4,2,5,3,6,4,7,
{8}5x-1[8:1],8,7,6h[2:1],,1,1,2,3-8[8:1],,7-3[8:1]/3,,7/2h[4:2],,E6/B6/B5,,
{8}4-8[8:1],1,2,3h[4:1],,8,17,26,3v8[8:1]/5v8[8:1],,35,,6h[4:1]/2,,B4/B3/E4,,
{8}1-5[8:1]/8-6[8:1],,18,,8-4[8:1]/1-3[8:1],,81,,
{8}8,8,1,2b/7b,,5h[8:1],4h[8:1],5h[8:1],
{8}3,3,25,25,6,6,74,74,8,8<5[8:1]/4>1[8:1],,84,,{24}B6,B5,B4,B3,,,,,,
{8}1-5[8:1],8,7,6,3h[4:1],4,5h[4:1],4,3qq7[2:1],3,5,5h[8:3],,,,,
{8}1h[2:1],3,3,3,3,,6,5,3>5[2:1],,7,7h[8:3],,,,,
{8}34,2,2,5,5,3,6,4,7-4[4:1],,4-1[4:1],,1-6[4:1],,3,,
{8}2h[4:3],,,6,6h[4:1],,,,1x/8x,1x/8x,1x/8x,2x-5[8:1]/7x-4[8:1],,2b/7b,,,
{8}6,5,74,5,6,5,74,5,6-2[8:1],6,4>7[4:1],4,,,,,
{8}2,18,18,C,18,C,18,C,1pp5[8:3],1,6-8[8:1],6,,,E7/C/E3,,
{8}1-4[8:1],,5-8[8:1],,2,1,8,2h[4:2]/7,,5,6,7,8-4[8:1],,18,,
{8}27,,3,4,2,6,5,7,,25,36,47,{16}1,8,2,7,3,6,4,5,
{8}4h[4:7],,E7/B6,,E3/B3,,,,E6,E7,E8,C,,E1,E5/B5/B4,,
{8}6,5,7,,3,4,2,,7/B4/E4,,2/E6/B5,,B8/B1/Cf,,,,
{8}5h[4:7],,E3/B3,,E7/B6,,,,E2,B2,B3,E4,,E6,E8/B8/B7,,
{8}24,3,75,6,13,2,86,7,18,18,27,27,36,36,45,45,,,
{8}2x-5[8:1]/6x-1[8:1],,2x/6x,,,,78,56,43,12,,8,2b/7b,,
{8}8-6[8:1]/2,,8-4[8:1]/2,2,8-5[8:1],2,8,
{8}2x-6[8:1],6xV41[4:1],2,1,8,7-4[8:1],,7b/8b,,
{8}1-3[8:1]/7,,1-5[8:1]/7,7,1-4[8:1],7,1,
{8}7x-3[8:1],3xV58[4:1],7,8,1,2-5[8:1],,2b/1b,,
{8}8-5[8:1],,8/4-1[8:1],,4/7-2[8:1],,7/3-6[8:1],,38,8,1,27,,
{8}35,46,45,{16}3,4,3,4,1b,,,,6,5,6,5,8b,,,,
{8}26,2qq3[4:1]/6qq7[4:1],,26,,,,,
{8}8-6[8:1]/2,,8-4[8:1]/2,2,8-5[8:1],2,8,
{8}2x-6[8:1],6xV41[4:1],2,1,8,7-4[8:1],,7b/8b,,
{8}1-3[8:1]/7,,1-5[8:1]/7,7,1-4[8:1],7,1,
{8}7x-3[8:1],3xV58[4:1],7,8,1,2-5[8:1],,2b/1b,,
{8}8-6[8:1]/1-3[8:1],,8-4[8:1]/1-5[8:1],,1>4[8:1]/8<5[8:1],,18,,
{8}38,16,18,2b/7b,,2,2,7,2qq5[2:1],,6,6h[8:3],,,,,
{8}3x-6[8:1]/7x-2[8:1],,3x/7x,,48,26,,1x/8x,,,
{8}4h[8:1]/5,5,6h[8:1]/3,3,2h[8:1]/7,7,
{8}8h[8:1]/1,1,2h[8:1]/7,7,6h[8:1]/3,3,4h[8:1]/5,5,
{8}45,45,45,45,{16}4,5,3,6,2,7,1,8,{4}1h[4:5],8h[1:1],,,,,
{32}1,2,3,4,5,6,7,8,1b,,,,,,,,
{4}1xV38[8:1]/7xV58[8:1],,1x<7[8:1]/7x<4[8:1],,1xs5[8:1],,
{8}12,3,78,6,2-6[8:1],,1-5[8:1]/2,,8-4[8:1]/1,,7-3[8:1]/8,,7/2h[4:1],,,,
{4}2-4[8:1],2/8-6[8:1],8/1-5[8:1],,7-5[8:1],7/1-3[8:1],1/8-4[8:1],,
{4}7h[4:1],6h[4:1],5<8[4:1],8>3[4:1],3<6[4:1],6<1[4:1],
{4}1b>1[2:1],Cf,1b,Cf,
{4}B7/B6/B5/B4/B3/B2/C/E8/E2,45,B8/B1/B7/B6/B5/B4,45,B1/B8/B7/C/B3/B4/B5,45,
{8}38,2,16,7,8/3-7[8:1],,3/5-1[8:1],,5/2-6[8:1],,2/8-4[8:1],,8/1h[4:1],,,,
{4}4/5p4[4:1],4>5[4:1]/5,,,8/1p8[4:1],8<1[4:1]/1,,,
{4}3h[4:1],5h[4:1],2h[4:1],6h[4:1],4h[4:1],7h[4:1],
{8}4b-8[8:1],,7,6,5b-1[8:1],,2,3,
{8}4x,3,28,1/7h[8:5],,8,6,5,5-3[8:1]*-2[8:1],,5-8[8:1]*-7[8:1],,5,,C,,
{8}5,6,71,8/2h[8:5],,1,3,4,4-6[8:1]*-7[8:1],,4-1[8:1]*-2[8:1],,4,,C,,
{8}1p5[8:1]/8<6[8:1],,18,,8q4[8:1]/1>3[8:1],,81,,5,46,73,8b/2b,,4,5,4,
{8}35,35,46,46,28,28,17,17,{16}3,5,3,5,4,6,4,6,2,8,2,8,1,7,1,7,
{1}Chf[1:4],,,,B1/B2/B3/B4/B5/B6/B7/B8,
E
