&title=Accelerator
&artist=KARUT
&first=0.18
&des=JAZZANA
&lv_5=14
&inote_5=(174)
{16}
7,,7,,
{32}
,,,,,,2,,,,,,3h[16:1]/2,,,,,,,,3,,,,,,,,3h[16:1]/4-8[8:1],,,,,,,,3h[16:1]/4,,,,,,3h[16:3],,,,,,8,,7,,6,,5,,
,,,,2h[4:1],,,,,,,,,,6h[16:1]/5,,,,,,5/4h[16:1],,,,,,3h[16:1],,,,,,,,,,6h[16:1]/2,,,,,,,,,,6,,1,,2,,3/7h[16:1],,4,,5,,6,,7,,8,,
,,,,1h[4:1],,,,,,,,,,7,,7,,,,8v2[8:1],,,,2v5[8:1],,,,3h[16:1],,,,,,,,4h[16:1],,,,,,,,65,,,,5<8[4:1]/4,,,,1,,,,15,,2,,3,,4,,
,,,,1h[4:1],,,,,,,,,,3,,,,,,4/7h[16:1],,,,3,,3h[4:1],,,,,,,,,,6h[4:1],,,,,,,,,,,,8,,7,,6,,5,,4,,3,,2,,1,,
2b-6[8:1],,,,8,,,,2,,,,,8v5[8:1],,,,,,,8,,,,3,,,,,,,,4-1[8:1],,,,3,,,,4,,,,,,,,4<7[8:1],,,,1,,,,41,,2,,3,,4,,
8-5[8:1],,,,1,,,,8,,,,2p6[8:1],,,,6v4[8:1],,,,2,,,,,,,,,,,,3,,,,6,,,,3,,,,,,7,,1,,2,,3,,4,,5,,6,,7,,8,,
1,,,,2,,,,7,,,,,,1h[12:1]/6-1[8:1],,,,,,1,,,,2-5[8:1],,,,,,,,2/1v6[8:1],,,,8,,,,1,,,,,,2h[8:1],,,,,,3,,,,8-3[8:1],,7,,6,,5,,
8-5[8:1],,,,7,,,,8,,,,,,4h[8:1],,,,,,3,,,,7q3[8:1],,,,3v5[8:1],,,,,,,,,,,,2,,,,3,,,,5,,6,,7,,8,,4,,3,,2,,1,,
7-4[8:1],,,,4-7[8:1]*>1[8:1],,,,7,,,,,,,,,,,,2,,,,7-4[8:1]/3,,,,,,,,7/3-6[8:1],,,,6-1[8:1],,,,3,,,,,,7h[8:1],,,,,,8,,,,8,,7,,6,,5,,
2-5[8:1],,,,4,,,,2,,,,,,6h[8:1],,,,,,6,,,,7-3[8:1],,,,,,,,7/8-4[8:1],,,,1,,,,86,,,,,,6,,1,,2,,3,,4,,7,,6,,5,,4,,
3v5[8:1],,,,5v2[8:1],,,,3,,,,,,6h[8:1],,,,,,8,,,,1>3[8:1],,,,,,,,1,,,,8<6[8:1],,,,7,,,,,,3h[8:1],,,,,,2,,,,1-4[8:1],,8,,7,,6,,
1-6[8:1],,,,8,,,,1,,,,,,5h[16:3],,,,,,3v6[8:1],,,,6,,,,,,,,7-2[8:1],,,,4,,,,7,,,,,,,,1,,2,,3,,4,,1,,8,,7,,6,,
4,,,,3,,,,4,,6,,3,,5,,4v1[8:1],,,,6h[16:1],,,,4/6h[16:1],,,,6,,,,3,,,,6,,,,2,,8,,1,,7,,2,,,,7,,,,1,,8,,1,,8,,
1v4[8:1],,,,7,,,,1/8h[16:1],,,,8h[16:1],,,,8,,,,7h[16:1]/4-1[8:1],,,,7h[16:1],,,,7/4,,,,7,,,,2,,,,6h[8:1],,,,,,3,,5v2[8:1],,4,,6h[8:1],,,,5,,,,,,,,
7h[16:1],,,,1,,,,6,,8,,7,,1,,6-1[8:1],,,,1-4[8:1],,,,6,,,,2-5[8:1],,,,,,,,2,,,,6h[16:1],,,,6h[16:1]/5-1[8:1],,,,6,,,,5,,,,8,,7,,6,,5,,
1h[16:1],,,,1,,,,5,,3,,4,,2,,5v3[8:1],,,,6h[16:1],,,,5,,,,7h[16:1],,,,2,,6,,2,,6,,1,,5,,1,,5,,1b,,2,,3,,4,,5b,,6,,7,,8,,
3,,,,7,,,,3-1[8:1],,7,,1-5[8:1],,5,,3,,,,8-4[8:1],,,,,,,,18,,,,2,,,,1,,,,5,,3,,4,,2,,5<8[8:1],,,,8,,,,58,,1,,2,,3,,
1,,,,4,,,,8,,3,,7,,2,,6-1[8:1],,,,1V75[8:1],,,,6,,,,2V48[8:1],,,,,,,,2,,,,6,,,,,,1,,7,,8,,6,,,,8v3[8:1]/7h[8:1],,,,,,,,
8,,,,6,,,,3,,5,,3,,5,,3,,,,6h[16:1]/4,,,,6h[16:1]/7,,,,65,,,,68,,,,2,,,,8,,1,,8,,2,,7,,,,1,,,,8,,7,,6,,5,,
3,,,,4,,,,2h[16:1]/8,,,,2h[16:1]/4,,,,27,,,,25,,,,6,,,,3,,,,4b,,7,,4,,7,,2b,,5,,2,,5,,1,,2,,3,,4,,5b/6hb[4:1],,,,,,,,
3h[8:4],,,,,,,,,,,,,,,,,,,,7qq5[5:2],,,,3,,,,7,,,,,,,,,,,,,,,,3h[8:1],,,,6qq8[1:1],,,,2,,,,1h[4:3],,,,,,,,,,,,,,,,,,,,,,,,,,,,,,,,1>4[8:1],,,,4V28[4:1],,,,1,,,,,,,,5<8[4:1],,,,,,,,51,,2,,3,,4,,,,,,,,,,2,,,,8h[16:1],,,,,,,,1h[4:1],,,,,,,,,,,,4-1[8:5],,,,1-6[8:4],,,,,,,,,,,,,,,,,,,,,,,,,,,,7,,,,6-4[8:1]/3-7[8:1],,,,,,,,6/3V51[32:10],,,,,,,3,,,,,,,,,,,,,,,,,8,,,,7b/2b,,,,,,,,,,,,1b/6b,,,,,,,,,,,,4bh[4:1]/8b-2-6-4[2:1],,,,,,,,,,,,,,,,,,,,,,,,
,,,,2<7[8:1],,,,8<5[8:1],,,,6>3[8:1],,,,,,,,,,,,,,,,7-2[4:1]
,,,,,,,,2-5[4:1],,,,5>8[8:4],,,,5<8[8:3],,,,,,,,,,,,,,,,,,,,,,,,,,,,8,,,,8,,,,7-4[4:1],,,,,,,,4-8[4:1],,,,,,,,8,,1,,2,,3h[4:1],,,,,,,,,,1,,,,2-5[8:1],,,,,,,,2,,,,7-3[8:1],,,,8,,,,7,,,,8h[4:1],,
,,,,,,,,,,,,,,6<8[8:1]/4h[4:1],,,,,,,,,,,,3,,,,4-8[8:1]/8-4[8:1],,,,,,,,84,,,,,,,,7<3[4:1]/2h[4:1],,,,,,,,,,,,2,,,,,,,,2b,,2,,6b,,6,,1b,,1,,5b,,5,,2b,,3,,4,,5,,7b,,6,,5,,4,,
2,,,,2,,,,1/7-4[8:1],,,,,,1,,7,,,,2,,,,27,,,,1,,8,,2V46[8:1],,,,6-2[8:1],,,,2,,,,7,,7,,,,,,3,,,,8,,4,,8,,4,,
7,,,,3,,,,7-5[8:1],,,,5-1[8:1],,4,,73,,,,3h[8:1],,,,,,,,8,,2,,8-5[8:1],,,,8,,,,1,,,,2,,2,,7,,1,,6,,2,,8,,2,,7,,3,,
6b,,,,6,,,,7/2-5[8:1],,,,8,,7,,6/2,,,,6h[8:1],,,,,,,,7,,1,,7-1[8:1],,,,1-5[8:1],,,,7,,,,2,,3,,4,,,,2,,,,1,,6,,2,,5,,
3,,,,2,,,,2-8[8:1],,,,8-4[8:1],,,,2,,,,6,,,,6,,,,5,,3,,5-8[8:1],,,,3,,,,5,,,,2,,2,,1-4[8:1],,8,,7,,6,,1b,,,,,,,,
8,,,,8,,,,8v3[8:1]/7,,,,,,7,,8,,,,6,,,,5,,,,43,,3,,4-7[8:1],,,,2,,,,4>1[8:1],,,,,,,,4,,,,5,,,,5b,,6,,7,,8,,
2-7[8:1],,,,7V15[8:1],,,,2,,,,6h[8:1],,,,,,,,6,,,,3,,,,34,,3,,4,,,,56,,,,78,,,,1,,6,,8,,7,,8,,7,,4,,5,,4,,5,,
3b,,,,2,,,,6-1[8:1],,,,1,,1,,6,,,,2,,,,8-4[8:1],,,,4-7[8:1],,3,,28,,,,2,,,,2-5[8:1],,,,,,8,,2,,,,8,,,,7,,4,,7,,4,,
7-4[8:1],,,,2,,,,72,,,,1,,2,,3,,,,25,,,,16,,,,87,,7,,1,,,,3,,,,8,,7,,6,,5,,1,,2,,3,,4,,6b,,2b,,6b,,2b,,
6bh[2:1],,,,,,,,,,,,,,,,,,2,,,,,,3h[16:1]/4,,,,,,,,2,,2,,,,5h[16:1],,,,,,4,,,,7,,7,,,,,,8,,1,,2,,3,,
7,,,,6h[16:1]/5,,,,,,3,,3,,,,1-5[8:1],,,,,,7,,1,,,,8h[16:1],,,,,,,,65,,,,,,4,,4,,,,3h[8:1]/6v3[8:1],,,,,,,,6,,,,,,,,
2bh[4:1],,,,,,,,,,,,7,,,,,,1,,,,8,,8,,,,7,,,,2,,2h[4:1],,,,,,,,,,1,,,,3h[8:1],,,,,,,,1,,8,,7,,6,,
4,,,,5h,,,,,,2h[16:1],,,,,,6,,6h[8:1],,,,,,3-8[8:1],,,,,,,,3,,,,7,,,,,,2,,,,,,8z4[8:1]/1s5[8:1],,,,18,,,,,,,,,,,,
