&title=Seclusion (feat. Sennzai)
&artist=Laur; Sennzai
&first=0
&des=寒假作业
&lv_5=13
&inote_5=(175)
{1},
{16},,,,7pp4[1:2],,,,,,,,,,,,
{16},,,,2<6[1:1],,,,,,,,,,,,
{16},,,,,,,,,,,,,,,,
{16},,,,2qq5[1:2],,,,,,,,,,,,
{16},,,,7>3[1:1],,,,,,,,,,,,
{16},,,,,,,,,,,,,,,,
{16},,,,4pp1[1:2]/5pp1[1:2],,,,,,,,,,,,
{16},,,,,,,,,,,,,,,,
{16},,,,,,,,,,,,,,,,
{16},,,,,,,,,,,,,,,,
{16}3>6[16:7],,,,,,,,,,5,,4,,3,,
{16}1h[16:3],,,8h[16:3],,,7,6,5,,,,,,1,2,
{16}6<3[16:7]/3,,,,,,,,,,4,,5,,6,,
{16}8h[16:3],,,1h[16:3],,,2,3,4,,,,,,7,6,
{16}5h[4:1]/3h[4:1],,,,,,,,4h[4:1]/6h[4:1],,,,,,,,
{16}2b^4[8:1]*^8[8:1],,,,2bv5[8:1]*v7[8:1],,,,2b,,,,4,3,2,1,
{16}8/6qq2[16:7],,,,,,,,,,3,,4-1[8:1],,5,,
{16}6b,,,,2/8h[4:1],,,,3,4,6,5,7<3[4:3],,8,,
{16}1,,,,,,,,,,,,,,,,
{16}2h[4:1],,,,,,,,3/5h[4:1],,,,,,,,
{16}4h[4:1],,,,6,,6,,5^3[4:1],,,,7,,,,
{16}5h[4:1],,,,1,,1,,24,,,,45,,,,
{16}3V15[8:3],,,,6-8[8:1],,,,6b,,,,4,,,,
{16}7V51[8:3],,,,2-5[8:1],,,,2b,,,,8,,,,
{16}7/2V83[8:3],,,,4-7[8:1],,,,4b,,,,48,,,,
{16}1qq6[8:3]/3,,,,5^2[8:1],,,,5b,,,,1,8,1,8,
{16}3pp8[16:7],,,,,,,,1^4[16:3],,,,,,,,
{16}5V73[4:1],,,,8,,,,2^5[8:1],,2^7[8:1],,,,,,
{16}4pp2[16:7],,,,,,,,1>8[16:6],,,,1,,,,
{16},,1,,,,2,1,2,,3,,4,,6,5,
{16}6qq1[16:7],,,,,,,,8^5[16:3],,,,,,,,
{16}4V26[4:1],,,,1,,,,7^4[8:1],,7^2[8:1],,,,,,
{16}5qq7[16:7],,,,,,,,8,,,,1,,8v5[8:1]/2v5[8:1],,
{16},,28,,,,{24}3,4,3,{16}5,,,,1,2,3,4,
{16}5<4[2:3]/6,,,,,,,,,,,,,,,,
{16},,,,,,,,,,,,,,,,
{16}4>5[2:3]/5,,,,5,,,,,,,,5,,,,
{16},,,,4,,,,,,,,4,,,,
{16}34,,3,,35,,3,,36,,3,,37,,3,,
{16}18,,8,,28,,8,,38,,8,,48,,8,,
{16}5,7,5,6,5,4,5,3,5,2,5,1,5,8,5,7,
{24}4,3,2,1,8,7,6,5,4,3,2,1,{32}8b,7,6,5,4,3,2,1,8,7,6,5,4,3,2,1,
{16}8bz4[2:1],,,,,,,,,,,,,,,,
{16}2,5,3,4,3,4,2,5,4,7,1,8,2b/7b>3[8:1],,,,
{32}7,6,5,4,{16},,,,1,1,8z4[4:1],,,,{24}3,4,5,6,,,
{16},,3v1[8:1],,2-6[8:1],,,,2b,,,,7h[128:1],7h[128:1],7h[128:1],7h[128:1],
{32}8V24[8:1],1,2v5[16:1],3,,,,,{16},,,,1b,,2h[8:1]/4h[8:1],,,3h[8:1]/5h[8:1],,,
{16}7h[8:1]/5h[8:1],,,6h[8:1]/4h[8:1],,,2,4,8b<4[24:5],,,,,,,,
{24}8-4[8:1]/3,27,16,{16}8/5,,,,5,5,3s7[16:3],,,,{24}7,,,8h[8:1],,,
{16},1h[8:1],,,2/8,,{24}3,4,5,{16}67,,2,1,3/8,,,,
{24}1b,2,3,4,5,6,7,8,1h[24:4],2b,3,4,5,6,7,8,1,2h[6:1],3b,4,5,6,7,8,
{24}1,2,3h[6:1],4b,5,6,7,8,1,2,3,4,5b,,,{16}1,8,2v5[16:1]/7-2[16:1],,,,
{16}2/7<2[4:1],,,,{24},,,,,,{16},,,,{32}1b/8b,,,,,,,,
{32}4b/5b,,,,,,,,{12}6b-4[12:1]/3b-5[12:1],72,81,6b/3b,,,{24}2,1,2,,8,,
{16}3V15[4:1]/7,,,,6,,4,,8,,,,{16}2-4[16:1],2-6[16:1],2,2,
{16},,,,1s5[4:1],1h[128:1],8z4[8:1],8h[128:1],,,,,,,,,
{12}36,,,3,4,3,2,3,2,3,5,3,
{12}1,3,1,3,6,3,8,3,8,3,5,3,
{12}8b,2,8,1b,3,1,7b,1,7,8b-4[8:1],2,8,
{16}6b,,,,,,7,6,54,,3,,2,,1,,
{16}8<3[1:1],,,,,,,,,,,,,,,,
{16}2h[4:1],,,,,,,,1h[4:1],,,,,,,,
{16}8h[4:1],,,,,,,,1h[4:1]/7h[4:1],,,,,,,,
{16}2q7[2:1]/6q3[2:1],,,,,,,,,,,,,,,,
{16}1^6[8:1]/5^2[8:1],,,,,,,,1b^6[8:1]/5b^2[8:1],,,,,,,,
{16}8^3[8:1]/4^7[8:1],,,,,,,,8b^3[8:1]/4b^7[8:1],,,,,,,,
{16}2p6[8:1]/6p2[8:1],,,,,,,,2bp6[8:1]/6bp2[8:1],,,,,,,,
{16}7q3[8:1]/3q7[8:1],,,,,,,,7b/3b,,,,8,1,8,1,
{16}7pp4[16:7]/2,,,,,,,,5^8[16:3],,,,,,,,
{16}1V37[4:1],,,,4,,,,6^1[8:1],,6^3[8:1],,,,,,
{16}8pp6[16:7],,,,,,,,5,,,,4,,5p8[8:1]/3q8[8:1],,
{16},,53,,,,{24}2,1,2,{16}8,,4,,16,,5,,
{16}21,,2,,28,,2,,27,,2,,26,,2,,
{16}45,,5,,35,,5,,25,,5,,15,,5,,
{16}8,4,8,3,8,2,8,1,8,7,8,6,8,5,8,4,
{32}1b,2,3,4,5,6,7,8,1,2,3,4,5,6,7,8,{16}1b/5b,,,,4,5,3,6,
{32}1b,2,3,4,5,,8b,1,2,3,4,,7b,,,,{16}1,,1,,
{32}8b,7,6,5,4,,1b,8,7,6,5,,2b,,,,{16}8-4[8:1],,2V46[4:1],,
{16}8-6[8:1],,,,,,,,
{32}1b,2,3,4,5,,8b,1,2,3,4,,7b,,,,{16}1,,1,,
{32}8b,7,6,5,4,,1b,8,7,6,5,,2b,,,,{16}3-7[8:1],,5V31[4:1],,
{16}3v8[8:1],,,,,,,,
{16}2h[128:1],7h[128:1],2h[128:1],6h[128:1],2h[128:1],5h[128:1],2h[128:1],4h[128:1],3h[128:1],,18,,7h[128:1],2h[128:1],7h[128:1],3h[128:1],
{16}7h[128:1],4h[128:1],7h[128:1],5h[128:1],6h[128:1],,18,,2-7[12:1]/6-3[12:1],,,,2b/6b,,,,
{32}2b,3,4,5,6,,1b,2,3,4,5,,8b,,,,{16}1,,1,,
{32}7b,6,5,4,3,,8b,7,6,5,4,,1b,,,,{16}2,,3,,
{16}5h[128:1],5h[128:1],6h[128:1],6h[128:1],7h[128:1],7h[128:1],8h[128:1],8h[128:1],
{16}1b>7[1:2],,,,,,,,,,,,,,,,
{16},,,,,,,,,,,,,,,,
{16}8h[1:1],,,,,,,,,,,,,,,,
{16}1-5[8:1],,,,,,,,3,4,3,4,15,,,,
{16}45,,56,,35,,57,,2/5-1[12:1],,85,,5b/1b,,,,
{16}54,,43,,64,,42,,7/4-8[12:1],,14,,4b/8b,,7,7,
{16}1,6,2,5,1,8,3,6,4,5,2,7,{24}1,8,1,8,1,8,
{32}1,2,3,4,56,,,,8,7,6,5,43,,,,1,2,3,4,5,6,7,8,{48}1,2,3,4,5,6,7,8,1,2,3,4,
{16}5b<4[1:3],,,,,,,,,,,,,,,,
{16},,,,,,,,,,,,,,,,
{16},,,,,,,,,,,,,,,,
{16},,,,,,,,,,,,,,,,
{16}5h[4:1]/6,,,,4h[4:1],,,,3h[4:1],,,,1,,1,,
{16},,,,2h[4:1],,,,5h[4:1],,,,8,,8,,
{16},,,,7h[4:1],,,,5h[4:1],,,,2,,2,,
{16}4h[4:1],,,,5,,,,3V52[16:3]/6-1[16:1],,,,,,,,
{16},,,,,,,,,,,,,,,,
{16},,,,,,,,,,,,,,,,
{16},,,,,,,,,,,,,,,,
