&title=ブレインロット
&artist=東京真中
&first=0.05
&des=MM非C真中
&lv_7=合
&inote_7=(135)
{1},
||zouzouzou
{4}7h[8:1]/4h[8:1],5h[8:1]/2h[8:1],7h[8:1]/4h[8:1],5h[8:1]/2h[8:1],
||obs
{16}7h[8:1]/4h[8:1],,,,5h[8:1]/2h[8:1],,,,7h[8:1]/4-1[8:1],,4,,5h[8:1],,,,
{16}2-5[8:1]/6h[8:1],,,,8h[8:1],,,,2h[8:1]/6<1[8:1],,,,4h[8:1],,,,
||yishiki
{16}5h[8:2]/2h[8:2],,,,,,,,{32}D3/5-8[8:1],E4,C,E2,,,,,5b/E4,B3,B2,E2,,,,,
||BillyG
{16}2>5[8:1],,6h[4:1],,A2,,,,2>6[8:1],,7h[4:1],,A2/D3,,,,
{16}2>7[16:3],,8h[4:1],,A2/D3/E3,,,,1>7b[16:3],,,,A1/D2/E2/B1,,,,
{16}6-4[8:1],,3h[4:1],,A6,,,,6-3[8:1],,2h[4:1],,A6/D6,,,,
||MWHxmj
{8}5/6,7,5/6,7,5-2[8:1]/6-8[8:1],7,,,
{8}1pp3[8:1]/7<5[8:1],2/6,,,1pp3[8:1]/7<5[8:1],2/6,{16},,,,
||BillyG
{16}2qq8[8:1]/4-6^7[8:1],,15,,,,,,2-4[8:1],,6-8[80:9],,2,,6,,
||yishiki
{16}5p3[16:4],,,,{32}5/A8,A7,,,,,,,{16}5qq6[8:2],,,,{32}A2/5,A1,,,
{16},,8-3[8:1],,,,{32}8/A6,A5,,,,,,,D7/4-1[8:1],E6,C,E8,,,,,4b/E6,B6,B7,E8,,,,,
||obs
{16}2-4v5-7[4:3],,,,,,,,,,,,,,8-6v5-3[4:3],,
{16},,8v1v2[8:4],,,,,,,,,,,,,,
||霧氷優佳子
{16}E3h[8:6],,,,E1,,,,E7,,,,E6,,E5,,
||HF_MeLaN
{16}A1h[8:7],,,,,,A7,,B7,,C,,B3,,A3,,
||MWHxmj
{8},,1-5<5[4:3]/7h[4:1],,,,4,5,
{8},6,,,6,2,5,4h[8:9]/3v6<3b[8:7],
{1},
{4},1v3[8:1],1v4[8:1],1,
||zouzouzou
{8}6h[4:1],B7,3h[4:1],B2,5h[4:1],B8,4h[4:1],B2,
{4}6<8[8:1],5q1[8:1],4w8[8:1],C,
||obs
{16}E7h[8:1],,{32}E6,E5,E4,,{16}E3h[8:1],,{32}E2,E1,E8,,{16}E7h[8:1],,{32}E6,E5,E4,,{16}E3h[8:1],,{32}E2,E1,E8,,
{16}E7h[8:1],,3xh[8:1],,E6h[8:1],,2h[8:1],,E5h[8:1],,1h[8:1],,Ch[8:1],,,,
||BillyG
{16}2h[8:1],,E7h[8:1],,E3h[8:1],,6h[8:1],,4h[8:1],,E8h[8:1],,E5h[8:1],,8h[8:1],,
{32}4h[8:1],,,,E7h[8:1],,,,E3,B3,,,,,,,{16}E8h[4:1]/B7h[8:3]/B8h[8:1]/6,,5,,4,,3,,
||zouzouzou
{4}3h[8:1]/8-2[8:1],
{32}B5,E5,,,,,,,{4}3h[8:1]/8-2[8:1],{32}B5,E5,{16},,,
||yisiki
{16}4h[8:2]/7,,,,{32}D7,E6,,,,,,,{32}D7/4-1[8:1],E6,C,E8,,,,,4b/E6,B6,B7,E8,,,,,
||obs
{16}1-5[8:1],,2,,7v4[8:1],,6,,2qq8[8:1],,3,,6p1[8:1],,5,,
{16},,3,,4,,5,,7x,5,3x,1,8x,6,4x,2,
||HF_MeLaN
{16}A7h[8:1],,D1,,B7h[8:1],,D6,,Ch[8:1],,D2,,B3h[8:1],,D5,,
{16}A3h[8:1],,A2,,A1h[8:3],,C,,A7h[8:1],,,,
{32}E2,B2,B3,E4,E7,B6,B5,E5,
||霧氷優佳子
{16}1x<6[8:1],,5,,4-1[8:1],,5,,2>5[8:1]/4,,3,,2/8,,7,,
{16}6>3[8:1],,3,,E2,,8>3[8:1],,1,,E7,,6x,,6x,,
||yishiki
{16}5p3[8:2]/7,,,,{32}5/A8,A7,,,,,,,4q6[8:2],,,,,,,,{32}4/A2,A1,,,
{16},,8>3[8:1],,,,{32}8/A5,A6,,,,,,,D7/4-1[8:1],E6,C,E8,,,,,4b/E6,B6,B7,E8,,,,,
||D.N.T
START
{32}B5h[4:1]/B6h[4:1],,,,,,,,8-2-5-1-7[8:3],,,,1,,,,2xh[4:1],,,,,,,,,3x-5-2-8-4[32:11],4x,,,,,,
{32}7xh[4:1],,,,,,,,,6x,5x,,,,,,3/5-1-7[4:1],,,,1-5[8:1],,,,5-3>2-6[4:1]b,,,,,,,,
{32},,,,,,,,1-7-4-8-2[8:3],,,,8,,,,7xh[4:1],,,,,,,,,6x-1-5[32:7],5x,,,,,,
{32}2xh[4:1],,,,,,,,,3x-6[32:3],4x,,8-3[8:1],,,,3p6>5-1[8:3],,,,8,,,,,,,,,,,,
{32}4b/Cf,,,,,,,,3bv8<7-4-6[8:3]/8b,,,,2,,,,1xh[4:1],,,,,,,,,2x-6q3<5[32:11],3x,,,,,,
{32}6xh[4:1],,,,,,,,,7x,8x,,,,,,1-4-6<7[4:1]/5,,,,4-1[8:1],,,,1v2>3-5[4:1]b,,,,,,,,
{32},,,,,,,,6v1>2-5-3[8:3],,,,7,,,,8xh[4:1],,,,,,,,,7xv5<6-1[32:7],6x,,,,,,
{32}2xh[4:1],,,,,,,,,3x,4x,,2h[16:1],,3h[16:1],,1h[16:1],,2h[16:1],,8h[16:1],,1h[16:1],,7h[16:1],,8h[16:1],,6,,,,
||D.N.T
END
||BillyG
{16}5-2-7[4:3],,,,,,,,,,,,,,3-8-5[4:3],,
{16},,6v3v1[2:1],,,,,,,,,,,,,,
||霧氷優佳子
{16}2>5qq6[8:5],,,,E8,,,,E7,,,,7,,7,,
||HF_MeLaN
{16}8<4q8[4:3],,,,,,E1,,E2,,E3,,E4,,E5,,
||MWHxmj
{8},,2qq6-3>2[4:3]/7h[4:1],,,,6,7,
{8},8,,6,1,5,2,4h[8:9]/3v6<3b[8:7],
{1},
{4},1-5[8:1],1v6[8:1],1,
||zouzouzou
3/5h[8:1],
{32}6h[8:1]/B3,B4,,,,,,,{4}3/5h[8:1],{32}6h[8:1]/B3,B4,,,,,,,{2}5-8[4:1],
{16}3x,4,7x,6,2,4,8,6,
{32}E2,B1,{16}B8,{8}6,{32}E8,B8,{16}B1,{8}3
,{32}E2,B1,{16}B8,{8}5,{32}E8,B8,{16}B1,4,,
||obs
{16}2,,7x,B7f,2,B2f,7x,B7f,2x,B2f,8x,B8f,1xh[8:1],,,,
||yisiki
{32}E4,B4,{16}B5,{8}7,{32}E6,B5,{16}B4,{8}2
,{32}E4,B4,{16}B5,{8}8,{32}E6,B5,{16}B4,,,
||霧氷優佳子
{16}1>4[8:1],,4,,E5/1,,6,,7>2[8:1],,2,,E4/7,,4x,,
||yisiki
{16}5p3[8:2]/3,,,,{32}5/1x>5[16:2],2x,,,,,,,1p7[8:2],,,,,,,,4>1[8:1]/1,3x,,,,,,,
{16}4<7[8:1],,,,{32}A2/4,A3,,,,,,,{32}D3/5-8[8:1],E4,C,E2,,,,,5b/E4,B3,B2,E2,,,,,
||霧氷優佳子
{16}Ch[8:1],,1-5[8:1],,2/E7,,1/3,,4-8[8:1],,2/E6,,4/7,,6,,
{16}5<8[8:1],,E3,,8<5[8:1]/5,,1,,1>4[8:1],,C,,1/8,,,,
||HF_MeLaN
{16}D6h[8:1]/A6h[8:1],,{32}B5,C,B1,,
{16}D8h[8:1]/A7h[8:1],,{32}B8,C,B4,,
{16}D6h[8:1]/A6h[8:1],,{32}A4,A3,A2,,
{16}D8h[8:1]/A7h[8:1],,{32}A1,A2,A3,,
{16}D6h[8:1],,{32}A2,A3,A4,,
{16}D7h[8:1],,{32}A3,A4,A5,,
{16}D8h[4:1],,D1h[8:1],,{32}A1/A7,A2/A6,A3/A5,A4,,,,,
||霧氷優佳子
{16}3xV57[8:1]/4x,,C,,1-5[8:1]/3,,E3,,1/2,,3,,4<7[8:1],,7>2[8:1]/E3,,
{16}4/2<4[8:2],,3,,3,,2V46[8:1],,1,,2/5,,7,,7,,
||HF_MeLaN
{4}A1h[4:1]/7-3[12:1],C,A8h[4:1]/2-6[12:1],C,
||zouzouzou
{8}7-1[8:1],6,{4}7/4-8[8:1],{2}4qq2[16:3]*pp6[16:3],
E
