&title=1116
&artist=BEMANI Sound Team "Dustup"
&first=0
&des=APOPHI$
&lv_4=11+
&lv_5=13
&lv_6=14+
&inote_1=
&inote_3=
&inote_4=(190){4}
,,,,
8-5[2:1]/1,1,1,1,
8-5[2:1]/1,1,1,1,
8-5[2:1]/1,1,1,1,
5qq1[2:1]/6,6,6,6,
8-5[2:1]/1,1,1,1,
8-5[2:1]/1,1,1,1,
8-5[2:1]/1,1,1,1,
5qq1[2:1]/6,6,6,6,
{16}
8h[16:3],,,7h[16:3],,,6,,5-1[8:1]/2-4[8:1],25,,,,,,,
1h[16:3],,,2h[16:3],,,3,,4-8[8:1]/7-5[8:1],47,,,,,,,
5h[16:3],,,6h[16:3],,,7,,8-4[8:1]/3-1[8:1],38,,,,,,,
4h[16:3],,,3h[16:3],,,2,,1-5[8:1]/6-8[8:1],16,,,,,,,
{8}
47,6,25,3,47,6,1b/5b,,
25,3,47,6,25,3,4b/8b,,
4,4,5,5,{16}4,5,4,5,4,5,4,5,
{1}
4>4[4:3],8b,,
1h[4:7]/8h[4:7],,
{8}
47,,6,5,,5,6,,
25,,3,4,,4,3,,
48,,7,5,,5,6,,
2,5,3,4,,34,25,,
47,,5,6h[4:1],,5,47,,
25,,4,3h[4:1],,4,25,,
48,,5,6h[4:1],,5,57,,
3,4,2,5,34,34,25,,
6,6h[4:1],4,4h[8:1],5h[2:1],4,3,2,
1h[4:1],8,7h[4:1],8,2h[4:1],1,7h[4:1],1,
3,3h[4:1],5,5h[8:1],4h[8:3],3,5,6,
{16}
7,2,7,2,8,1,8,,{2}1w5[8:1],
{8}
3,3h[4:1],5,5h[8:1],4h[2:1],5,6,7,
8h[4:1],1,2h[4:1],1,7h[4:1],8,2h[4:1],8,
6,6h[4:1],4,4h[8:1],5h[8:3],6,4,3,
{16}
2,7,2,7,1,8,1,,{2}8w4[8:1],
{8}
7<3[16:3],8,1,2,2>6[16:3],1,8,7,
57,6,35,4,25,3,47,6,
3>7[16:3],4,5,6,6<2[16:3],5,4,3,
{16}3,5,3,5,4,6,4,6,{8}4,35,26,,
2>6[16:3],1,8,7,7<3[16:3],8,1,2,
24,3,46,5,47,6,25,3,
6<2[16:3],5,4,3,3>7[16:3],4,5,6,
{16}6,4,6,4,5,3,5,3,{8}5,46,37,,
18,18,18,,28,,38,,48,,58,,68,,78,,
18,,17,,16,,15,,14,,13,,12,,18,,
7-4[8:1]/8b,8,8,,7-4[8:1]/8b,8,8,,
1b/2-5[8:1],1,1,,1b/2-5[8:1],1,1,,
8,8,1,1,{16}8,1,8,1,8,1,8,1,{4}8b-4[8:1],1b-5[8:1],7bw3[8:1],,
{8}56,4,56,7,5-1[8:1]/6,,6-8[8:1],,5-2[8:1],,6-1[8:1],,4,,
{12}3,4,3,6,5,6,{8}47,,25,,
{12}3,4,3,6,5,6,{8}47,6,25,3,
45,,{12}3,4,3,{8}4-6[8:1],,3-8[8:1],,4-7[8:1],,3-1[8:1],,4-8[8:1],,3,,{12}6,5,6,{8}4-8[8:1],,5-1[8:1],,4-2[8:1],,5-7[8:1],,4p5[8:1],,,,36,36,18,,
{4},7p3[8:1],1q5[8:1],{12}8,8,8,{4}8-4[8:1],2v5[8:1],7,{16}1,8,1,8,{4}27,{8}8,17,2,13,4,35,6,57,8,17,6,57,45,{16}24,24,{4},
2q6[8:1],8p4[8:1],{12}1,,1,{4}1-5[8:1],7v4[8:1],2v5[8:1],8b,
{8}1,8,73,6,5,{16}3,4,{8}3,2,{6}1h[6:1],8h[6:1],7h[6:1],8h[6:1],1h[6:1],2,
{16}
1b/8b,,,,8,,,1,,8,,,1,,8,1,
8,,1,,8,,1,,,8,,,1,,8,,
1b/8b,,,,1,,,8,,1,,,8,,1,8,
1,,8,,1,,8,,,1,,,8,,1,,
{6}1b/8b,68,57,45,24,13,
18,57,24,{8}36,36,27,27,
{16}
1,,2,,3,4,3,,8,,6,5,6,,3,4,
2,,6,5,7,,3,6,2,7,2,7,1,8,1,8,
{16}
1h[16:2],,8,2h[16:3],,,3,,1-4[8:1],1,,,6,,7,,
8h[16:2],,1,7h[16:3],,,6,,8-5[8:1],8,,,3,,2,,
1h[16:2],,8,2h[16:3],,,3,,1-4[8:1],1,,,6,,7,,
8h[16:2],,1,7h[16:3],,,6,,5qq1[4:1],,6,,7,,8,,
8h[16:2],,1,7h[16:3],,,6,,8-5[8:1],8,,,3,,2,,
1h[16:2],,8,2h[16:3],,,3,,1-4[8:1],1,,,6,,7,,
8h[16:2],,1,7h[16:3],,,6,,8-5[8:1],8,,,3,,2,,
{8}6,6,3,3,{16}6,3,6,3,5,4,5,4,
{1}5bqq1[4:3],,,
E
&inote_5=(190){4}
,,,,
8b-5[2:1]/1,1,1,1,
1b-4[2:1]/8,8,8,8,
8b-5[2:1]/1,1,1,1,
5bqq1[2:1]/8,8,8,8,
8b-5[2:1]/1,2,1,2,
1b-4[2:1]/8,7,8,7,
8b-5[2:1]/1,2,1,2,
5bqq1[2:1]/8,7,8,7,
{16}
8b-5[4:1]/1,,,2,2,,3,,4,4,,,36,,27,,
1b-4[4:1]/8,,,7,7,,6,,5,5,,,36,,27,,
8b-5[4:1]/1,,,2,2,,3,,4,4,,,36,,36,,
5bqq1[4:1]/4,,,6,6,,7,,8,8,,,27,,27,,
{8}
18,7,18,2,1/8-5[8:1],7,1/8b,2,
18,2,18,7,1-4[8:1]/8,2,1b/8,7,
{16}
6,4,6,4,7,3,7,3,8-5[8:1],2,8,2,8b,4,3,2,
{24}
1,2,3,4,5,6,8,7,6,5,4,3,
{32}
2,3,4,5,6,7,8,1,2,3,4,5,6,7,8,1,
{1}
2b<3[4:3]/3bp6[4:6],,
{8}
8h[8:5]/1h[4:1],,,2h[8:5],,,7h[8:5],,,3h[8:2],,,57,,24,,
7^4[8:1]/8,6,78,1,{16}1-5[8:1],2,1,,{8}1,,
2^5[8:1]/1,3,12,8,{16}8-4[8:1],7,8,,{8}8,,
7^4[8:1]/8,6,78,1,{16}1-5[8:1],2,1,,{8}1,,
2^5[8:1]/1,3,12,8,{16}8-4[8:1],7,6,5,{8}48,,
2^5[8:1]/1,3,12,8,{16}8-4[8:1],7,8,,{8}8,,
7^4[8:1]/8,6,78,1,{16}1-5[8:1],2,1,,{8}1,,
2^5[8:1]/1,3,12,8,{16}8-4[8:1],7,8,,{8}8,,
7^4[8:1]/8,6,78,1,{16}1-5[8:1],2,3,4,{8}15,,
{16}
36,,7,8,7,,16,,2,1,2,,38,,16,,
{8}
7-3[8:1]/8,6,7/8-4[8:1],1,7<3[8:1]*>3[8:1]/8,1,7,,
{16}
27,,6,5,6,,47,,3,4,3,4,25,,47,,
3,4,3,2,3-6[8:1],4,3-8[8:1],,3-7[8:1],,3,,3,,,,
36,,2,1,2,,38,,7,8,7,,16,,38,,
{8}
2-6[8:1]/1,3,2/1-5[8:1],8,2<6[8:1]*>6[8:1]/1,8,2,,
{16}
27,,3,4,3,,25,,6,5,6,5,47,,25,,
6,5,6,7,6-3[8:1],5,6-1[8:1],,6-2[8:1],,6,,6,,,,
{8}
2-5[8:1],7,2^5[8:1],8-4[8:1],2-6[8:1],8^5[8:1],2,8,
3h[4:1],4,6h[4:1],5,2h[4:1],3,7h[4:1],6,
1-5[8:1],8-6[8:1],1-3[8:1],8-4[8:1],1^4[8:1],8^5[8:1],1,8,
{16}
1,2,3,4,1v7[8:1]/5v7[8:1],8,7w3[8:1],6,{2}15,
{8}
7-4[8:1],2,7^4[8:1],1-5[8:1],7-3[8:1],1^4[8:1],7,1,
6h[4:1],5,3h[4:1],4,7h[4:1],6,2h[4:1],3,
8-4[8:1],1-3[8:1],8-6[8:1],1-5[8:1],8^5[8:1],1^4[8:1],8,1,
{16}
8,7,6,5,8v2[8:1]/4v2[8:1],1,2w6[8:1],3,{2}48,
{8}
7-4[8:1]/1,7,{4}7/1-4[8:1],1/8p3[8:1],8/2v5[8:1],2/6v1[8:1],6/3-8[8:1],3/5^2[8:1]*^8[8:1],5,
{8}
1-5[8:1]/7,1,{4}1/7-4[8:1],7/1v6[8:1],1>3[8:1]/8q4[8:1],1p5[8:1]/8<6[8:1],1-3[8:1]/8-3[8:1],1-6[8:1]/8-6[8:1],18,
{8}
81,1,12,2,23,3,34,4,
45,5,56,6,67,7,78,8,
{16}
1,8,2,7,3,6,4,5,4,5,3,6,2,7,1,8,
{32}
1h[8:1]/7,6,5,4,{8}3,{32}8h[8:1]/2,3,4,5,{8}6,2-5[8:1]/7-4[8:1],27,2b/7b,,
6h[4:1],7,4h[4:1],5,2h[4:1],,8h[4:1],{16}7,7,{8}6h[4:1],,4h[4:1]
,5,2h[4:1],,{12}8h[12:2],7,7,
6h[12:2],5,5,{8}4h[4:1],,2h[4:1],,{12}8h[12:2],7,7,
6h[12:2],5,5,4h[12:2],3,3,{8}2h[4:1],3,8h[4:1],,
{12}1h[4:1],2,2,{8}3h[4:1],2,5h[4:1],,7h[4:1],{16}8,8,
{8}
1h[4:1],,3h[4:1],2,5h[4:1],,{12}7h[12:2],8,8,
{4}6h[12:2]/1h[12:2],3h[12:2]/8h[12:2],5h[12:2]/7h[12:2],2h[12:2]/4h[12:2],
{32}
1-5[8:1]/5,2,3,4,5,6,7,8,{8}1b,,2-5[8:1]/7-4[8:1],27,27,,
{16}
15,26,37,48,{4}1h[12:5]/5h[12:2],3h[4:1],{12}7h[12:5],2,2,
{4}1h[12:5],3h[4:1],5,{16}4,5,4,5,
{8}3b/6b,,4/5-1[8:1],7,4-8[8:1]/5,2,4/5v2[8:1],7,
4v7[8:1]/5,3,45,6,45,36,27,{16}27,2b/7b,
{4},4h[12:2]/8h[12:5],2h[4:1],{12}6h[12:5],1,1,
{4}8h[12:5],2h[4:1],4^1[8:1]*^7[8:1],4b,
{8}8,8,26,4,4,{16}6,4,{8}5h[8:1],3,
{24}2h[8:1],,,4,3h[8:1],,,5,4h[8:1],,,6,7h[8:1],,,5,6h[8:1],,,4,5h[8:1],,,,
{16}
1-5[8:1],,,,1/7b-3[16:1],,,2b,,2b-8[16:1],,,6b-4[8:1],,8b-4[8:1],8,
8,,5b-8[16:3],,5b,,2b-4[16:1],,,2/6b-8[16:1],,,1b-5[8:1],,1b,,
8-4[8:1],,,,8/2b-6[16:1],,,7b,,7b-1[16:1],,,3b-5[8:1],,1b-5[8:1],1,
1,,4b-1[16:3],,4b,,7b-5[16:1],,,7/3b-1[16:1],,,8b-4[8:1],,8b,,
{6}1-5[8:1],7-4[8:1],2-5[8:1],6-1[8:1],3-8[8:1],5-1[8:1],
2-4[8:1],6-8[8:1],4qq1[4:1],{8}7,7,6,7,
{16}
27,,27,,8,1,27,,27,,1,8,27,,8,1,
26,,7,6,35,,4,4,6,4,7,4,8-5[8:1],4,8,2,
1/8b,,,2,24,,45,,7,57,,,6/8-5[8:1],,13,,
1/8b,,,2,24,,18,,7,57,,,1/8-5[8:1],,3h[32:1],2h[32:1],
1/8b,,,2,24,,45,,7,57,,,5qq1[2:1]/3,,46,,
5b/6,,,6,6,,7,,8,8,,,1-4[8:1]/7,,28,,
1b/8,,,7,57,,45,,2,24,,,3/1-4[8:1],,68,,
1b/8,,,7,57,,18,,2,24,,,8/1-4[8:1],,6h[32:1],7h[32:1],
1b/8,,,7,57,,45,,2,24,,,46,,35,,
{24}
1,2,3,4,5,6,8,7,6,5,4,3,
{32}
2,3,4,5,6,7,8,1,2,3,4,5,6,7,8,1,
{1}
2b<3[4:3]/3bp6[4:6],,
,
E
&inote_6=(190){4}
,,,,
4/5-8[2:1],5,5,5,
4-1[2:1]/5,4,4,4,
4/5-8[2:1],5,5,5,
4/5qq1[2:1],6,7,8,
4h[4:1]/5-8[2:1],,5h[4:1],,
4-1[2:1]/5h[4:1],,4h[4:1],,
4h[4:1]/5-8[2:1],,5h[4:1],,
4h[4:1]/5qq1[2:1],,7h[4:1],,
{16}
2h[16:3]/1,,,1,2,,38,,5-1[8:1]/6,47,,,5,,3,,
7h[16:3]/8,,,8,7,,16,,3/4-8[8:1],25,,,4,,{32}6,5,4,3,
{16}
2/1h[16:3],,,2,1,,38,,5-1[8:1]/6,47,,,5,,3,,
8h[16:3]/7,,,7,8,,16,,4/5qq1[16:3],36,,,6,,7,,
{8}
45,45,56,56,3/5-1[8:1],57,25,8,
45,45,34,34,4-8[8:1]/6,24,47,1,
{16}
4,3,5,2,7,8,6,1,5-1[8:1],4,6,3,5,2,3,4,
{24}
8,7,6,5,4,3,2,3,4,5,6,7,{16}3,2,1,8,7,6,5,4,
{1}
2b<3[4:3]/3bp6[4:6],,
4h[4:7]/8h[4:7],,
{16}
5h[16:3],,,6,56,,47,,3-5[8:1],8h[16:3],5-1[8:1],,3,,,,
4h[16:3],,,3,34,,25,,6-4[8:1],1h[16:3],4-8[8:1],,6,,,,
2h[16:3],,,1,12,,38,,4-2[8:1],7h[16:3],2-6[8:1],,4,,,,
7h[16:3],,,8,78,,16,,5-7[8:1],2h[16:3],7-3[8:1],,5,,,,
2h[16:3],,,1,38,,16,,4-8[8:1]*V26[4:1],35,26,,4,,,,
7h[16:3],,,8,16,,38,,5-1[8:1]*V73[4:1],46,37,,5,,,,
2h[16:3],,,1,38,,16,,4-8[8:1]*V26[4:1],35,26,,4,,,,
7h[16:3],,,8,16,,38,,{8}7qq5[8:1]/2pp4[8:1],36,27,,
{16}
6-1[8:1],,2-7[8:1],1,68,,2,,6-3[8:1],5,2-5[8:1]/4,,6,,2,,
{8}8-4[8:1],8,2-5[8:1],2,7-4[8:1],7,1,1,
{16}
6-3[8:1],,2-5[8:1],3,46,,2,,6-1[8:1],7,2-7[8:1]/8,,6,,2,,
6,5,4,3,2-6[8:1],1,8-4[8:1],7,2^5[8:1],,8,,2,,,,
3-8[8:1],,7-2[8:1],8,13,,7,,3-6[8:1],4,7-4[8:1]/5,,3,,7,,
{8}1-5[8:1],1,7-4[8:1],7,2-5[8:1],2,8,8,
{16}
3-6[8:1],,7-4[8:1],6,35,,7,,3-8[8:1],2,7-2[8:1]/1,,3,,7,,
3,4,5,6,7-3[8:1],8,1-5[8:1],2,7^4[8:1],,1,,7,,,,
{8}
7-3[8:1]/8,3-7[8:1]/5,1pp4[8:3]/7,8,1,8,7,6,
5-1[8:1],7,5-2[8:1],3,5-8[8:1],7,5,3,
2-4[8:1]/1,4-1[8:1]/6,2/5-1[8:3],6,5,2,3,4,
{16}48,7,26,5,8v2[8:1]/4v6[8:1],1,6v1[8:1]/2v5[8:1],3,{8}48,,,,
2-6[8:1]/1,6-2[8:1]/4,8qq5[8:3]/2,1,8,1,2,3,
4-8[8:1],2,4-7[8:1],6,4-1[8:1],2,4,6,
7-5[8:1]/8,5-8[8:1]/3,7/4-8[8:3],3,4,7,6,5,
{16}15,2,37,4,1v7[8:1]/5v3[8:1],8,3v8[8:1]/7v4[8:1],6,{8}15,,,,
7p3[8:1]/1,7,7/1q5[8:1],,1/8-4[8:1],,8/2q6[4:1],,
6q2[4:1],,2q6[4:1],,6q2[4:1],,2,,
8p4[8:1],8,8/3-7[8:1],,3/6-1[8:1],,6/4-8[8:1],,
5v2[8:1]/4,,3p7[8:1]/5,,3/4^7[8:1]*^1[8:1],,4,,
8,8,26,26,1,1,37,37,
45,46,47,48,45,35,25,15,
{16}
4,5,4,5,3,6,3,6,2,7,2,7,1,8,1,8,
{32}
2h[8:1]/7,6,5,4,3,,,,7h[8:1]/2,3,4,5,6,,,,
8,7,6,5,4,3,2,1,{4}8,
{8}
8-4[8:1],6,8-3[8:1]*-2[8:1],7,8-4[8:1],,8-5[8:1]*-6[8:1],{16}1,1,
{8}
8-4[8:1],,8-3[8:1],2,8-2[8:1],,{12}8-3[8:1],4,4,
8-4[8:1],5,5,{8}8-5[8:1]*-6[8:1],,8-4[8:1],,{12}8-3[8:1],6,6,
8-2[8:1],5,5,8,4,4,{8}8-4[8:1],17,8,,
{12}1-5[8:1],3,3,{8}1-6[8:1]*-7[8:1],4,1-5[8:1],,1-4[8:1]*-3[8:1],{16}8,8,
{8}
1-5[8:1],,1-6[8:1]*-7[8:1],3,1-5[8:1],,{12}1-4[8:1],7,7,
{4}1^6[8:1]*-6[8:1],1^4[8:1]*-4[8:1],1w5[8:1]*-5[8:1],1,
{32}
1/5,2,3,4,5,6,7,8,{8}1b,,2-5[8:1]/7-4[8:1],27,27,,
{16}
1/5-1[8:1],26,37,48,{8}1/5-3[8:1],,8/5-2[8:1],,{12}5-1[8:1],7,7,
{4}5-7[8:1]*-8[8:1],5-3[8:1]*-2[8:1],5,{16}5,5,4,4,
{8}3/6,,4,78,5,12,4,17,
5,28,4,18,67,23,45,{16}27,36,
{4}4-8[8:1]/5,4-6[8:1]/2,4-7[8:1]/3,{12}4-8[8:1],2,2,
{4}4-2[8:1]*-1[8:1],4-6[8:1]*-7[8:1],4w8[8:1],4b,
{8}56,56,18,34,34,{16}1,8,{8}27,36,
{6}1h[8:1]/5h[8:1],2h[8:1]/6h[8:1],3h[8:1]/7h[8:1],4h[8:1]/8h[8:1],3h[8:1]/7h[8:1],2h[8:1]/6h[8:1],
{16}
15,,,,78,,,12,,78,,,12,,78,78,
78,,12,,78,,12,,,78,,,12,,78,,
26,,,,34,,,56,,34,,,56,,34,34,
34,,56,,34,,56,,,34,,,56,,34,,
{6}25,1h[8:1]/8h[8:1],7h[8:1]/8h[8:1],1h[8:1]/8h[8:1],1h[8:1]/2h[8:1],1h[8:1]/6h[8:1],
4h[8:1]/8h[8:1],5h[8:1]/7h[8:1],4h[8:1]/2h[8:1],{8}7h[16:1]/8h[16:1],1h[16:1]/2h[16:1],36,18,
{16}
46,,18,,4,4,35,,18,,6,6,57,,3,3,
24,,7,7,68,,2,2,5,1,5,8,1-5[8:1]/5-1[8:1],26,37,48,
{16}
1b/5,,,48,48,,26,,82,37,46,,1-5[8:1]/5-1[8:1],,37,,
1/5b,,,26,26,,48,,26,37,48,,1-5[8:1]/5-1[8:1],,{32}7,6,3,4,
{16}
1b/5,,,48,48,,26,,82,37,46,,15,,37,,
{24}1b/3p6[8:1],8b,7b,6b,5b,4b,{16}
3,,,,27,36,45,,4-8[8:1]/8-4[8:1],,{32}6,7,2,1,
{16}
4/8b,,,15,15,,37,,71,26,35,,4-8[8:1]/8-4[8:1],,26,,
4b/8,,,37,37,,15,,73,26,15,,4-8[8:1]/8-4[8:1],,{32}2,3,6,5,
{16}
4/8b,,,15,15,,37,,71,26,35,,48,,26,,
{24}
28,7,6,5,4,3,27,3,4,5,6,7,{16}1,2,3,4,7,6,5,4,
{24}1b/3p6[1:1],8b,7b,6b,5b,4b,{16}
3,,,,{2},,,
E
&inote_7=5h[16:3],,,6,56,,47,,1-7[8:1]*-3[8:1],28,3-7[8:1]/7,,1,,,,
1/6-1[8:1],,4-7[8:1]/8,1,
26,,4,,6,8,7,8,1-5[8:1]/6,,2,,
{8}1/8p3[8:1],7,1q6[8:1]/8,2,8-4[8:1]/1-5[8:1],7,18,,
{16}
1/6-1[8:1],,4-7[8:1]/8,1,26,,4,,6^3[8:1],8,7,8,6,,2,,
{8}1/8p4[8:1],7,1q5[8:1]/8,2,8-4[8:1]/1-5[8:1],7,18,,
{16}
1-6[8:1]/6,,3/7-4[8:1],6,15,,7,,3^8[8:1],5,4,5,3,,7,,
6,5,4,3,2-6[8:1],1,8-4[8:1],7,2>5[8:1],,8,,2,,,,
8/3-8[8:1],,5-2[8:1]/1,8,37,,5,,3^6[8:1],1,2,1,3,,7,,
{8}8/1q5[8:1],2,8p4[8:1]/1,7,8-4[8:1]/1-5[8:1],2,18,,
{16}
8-3[8:1]/3,,6/2-5[8:1],3,48,,2,,6^1[8:1],4,5,4,6,,2,,
3,4,5,6,7-3[8:1],8,1-5[8:1],2,7<4[8:1],,1,,7,,,,
3-7[8:1],7-3[8:1]/4-6[8:1],3qq8[4:1],4,7,6,5,4,
{8}
2-5[8:1],7,2^5[8:1],8-4[8:1],2-6[8:1],8^5[8:1],2,8,
3h[4:1],4,6h[4:1],5,2h[4:1],3,7h[4:1],6,
1-5[8:1],8-6[8:1],1-3[8:1],8-4[8:1],1^4[8:1],8^5[8:1],1,8,
{16}
1,2,37,4,1v7[8:1]/5v3[8:1],8,3v8[8:1]/7v4[8:1],6,{2}15,
{8}
7-4[8:1],2,7^4[8:1],1-5[8:1],7-3[8:1],1^4[8:1],7,1,
6h[4:1],5,3h[4:1],4,7h[4:1],6,2h[4:1],3,
8-4[8:1],1-3[8:1],8-6[8:1],1-5[8:1],8^5[8:1],1^4[8:1],8,1,
{16}
8,7,26,5,8v2[8:1]/4v6[8:1],1,6v1[8:1]/2v5[8:1],3,{2}48,
