&title=恭喜发财
&artist=刘德华
&first=0
&des=财神
&lv_7=发财
&inote_7=(132)||大家好这里是老吴,我是第九棒,你们加油。(附带一个烟花)
{16},,,,Cf,,,,,,,,,,,,
{16},B2,,B7,E1,,,B2,B3,B4,A8,A7,A6,D1,E1,B8,
{16}C,B4,E5,D7,E7,B6,B5,C,B1,E2,D2,A4,B4,C,B2,E3,
{16}D3/8x,,,7,7qq8b[4:1],,8,,7,,2,,4>8[4:1],,,,
{16}8xq5[4:1],,7x,6x,5xv3[16:3],,6,,7,,8,,1,,,,
{16}D7/1x,,,2,2pp1b[4:1],,1,,2,,7,,5<1[4:1],,,,
{16}1xp4[4:1],,2x,3x,4x,,3,,2,,17,,1/7h[4:1],,,,
{16}2<7b[4:1],,,,7<4b[4:1],,,,4p7b[4:1],,,,7<4b[4:1],,,,
{16}4>1b[4:1],,,1,1pp4b[2:1],,B2f/B3/E3,,B2f/B3/E3,,,,,,,,
{16}7>2b[4:1],,,,2>5b[4:1],,,,5q2b[4:1],,,,2>5b[4:1],,,,
{16}5<8b[4:1],,,8,8qq5b[2:1],,B7f/B6/E7,,B7f/B6/E7,,,,,,,,
{16}2,,3,4,5b/6,,7/8,,1/8,,7,6,5b/4,,4/3,,
{16}7/8,,1,2,3b/4,,6/5,,6pp8[8:1]/2pp4[8:1],,8/4,,6b/2b,,,,
{16}7/8,,6,5,4b/3,,2/1,,8/1,,2,3,4b/5,,5/6,,
{16}2/1,,8,7,6b/5,,3/4,,3qq1[8:1]/7qq5[8:1],,1/5,,3b/7b,,,,
{16}2b-5b[8:1]/6b-8b[8:1],,,,2b/6b,,,,1>2-5b[16:3]*-6>5b[16:3],,,,,,,,
{16}8b,,{32}7b,6b,5b,4b,3b/1b,,{16},2,,8/6,,13,,2/6,,45,,
{16}7b-4b[8:1]/3b-1b[8:1],,,,7b/3b,,,,8<7-4b[16:3]*-3<4b[16:3],,,,,,,,
{16}1b,,{32}2b,3b,4b,5b,6b/8b,,{16},7,,1/3,,68,,7/3,,2,,||祝大家写谱文思泉涌写了还能写灵感用不断吃好喝好睡好玩好舞萌打得好谱面写得好拿下三字母四字母五字母比赛
{16}3h[16:3]/4,,,5,3^6b[8:1],,2,,3,,1,8,7,,7,,
{16}5/6h[16:3],,,4,6^3[8:1],,7,,6,,8,1,2,,24,,
{16}5-7[8:1],,,,4-2[8:1],,,,5-1[8:1],,,,4-8[8:1],,,,
{16}5b<4b[2:1]/Cf,,,,,,,,,,,,,,,,
{16}3/5,,,2,3/5,,4/6,,1b/8b,,,,,,7,,
{16}1x-5[8:1],,8-6[8:1],,1,,8,,2,,{24}2x,3x,4x,{16}5x/6x,,7,,
{16}7-5[8:1],,2,,7-3[8:1],,4,,7,,2,,15,,3,,
{16}8-4[8:1],,,,5-2[8:1],,5,,1>3qq4b[4:2],,7<5pp4b[4:2],,1x,,7x,,
{16}Cf,,,,,,,,3<6b[8:1]/6>3[8:1]b,,,,,,,,
{16}1/8-4[8:1],,,,8,,3-8[8:1],,4-7[8:1],,3-6[8:1],,4,,3,,
{16}1bw5[8:1]b,,,,1b,,,,2b-6[8:1]b/8b-4[8:1]b,,6b/4b,,2b/8b,,,,
{16}8-4[8:1],,4-8[8:1],,8,,1>1[4:1],,E4/B4/D4,,,,,,,,
{16}Cf/B1/E8/E2/B8/E1,,2x/7x,3x/6x,4x/5x,,5x/6x,,8xh[4:1],,,,5,4,3,5,
{16}2x-5[8:1]/4x,,5V31[4:1],,1,,8,,7,,{24}6bxh[8:1],,,{16}5bxh[8:1],,4bxh[8:1],,
{16}2x^3^4^5^6^7^8^1^2^3^4^5^6^7^8^1^2^3^4^5^6^7^8^1^2^3^4^5^6^7^8^1^2^3^4^5^6b[4:7],,7,,2x,,6,,8,,5x,,4,,6,,
{16}8-4[8:1],,,,,,,,Chf[4:2],,,,,,,,
{16},,1>5[8:1],8,1,,1,,7-4[8:1],,6,,7/3-6[8:1],,2,,
||到春节了,比利怪祝您新春行大运发大财,人人都提adx
{16}3/8>2v3^5[8:3],,,,78,,6,,7,,8,,6V85b[4:1]/4V25b[4:1],,37,,
{16}4b/6b,,,,,,,,3xhb[8:1],,4xhb[8:1],,5xhb[8:1],,6xhb[8:1],,
{16}1xbs5b[8:1],,7xb-3b[8:1],,1,,7,,E1,,,,3-1-7-5b[2:1],,,,
{16}Cf,,,,,,,,,,,,2>7<2b[2:1],,,,
{16}8h[2:1]/E3,E4,E5,E6,E7,E6,E5,E4,E3,,,,7<2>7b[2:1],,,,
{16}1h[2:1]/E7,E6,E5,E4,E3,E4,E5,E6,E7,,,,D1,,,,
{16}B8/3-1v8-6-4-2b[8:5],,,,,,,,,,,,,,,,
{16}Cf/8bh[16:3],,,1,8,,27,,5/6h[4:1],,3,,5h[4:1],,8,,
{16}Chf[1:1],,,,,,,,B1f/E2/B2,,,,B7f/B8/E8,,,,
{16}1<7-5b[16:4],,,,5>3-1b[16:4],,,,Cf,,,,,,7,7,
{16}8-5-1[8:2],,2,,2>7[8:2]*>7[8:2],,,,,,,,A7f,,8,,
{16}1V75b[8:2]/2,,8,2,1,,4,,2,,7b/8b,,1b/2b,,,,||怎么没人写?补一句
{16}3-7b[8:1]/6-4b[8:1],,,,A3f/A6f,,,,8v5b[8:1]/2v5b[8:1],,,,A7/B7/Cf/B3/A3,,,,
{16}6hx[16:3],,,4,5,,3,,4/5,,4/5,,4/5,,3/6,27,
{16}1/8p4[8:1],,,,2v5[8:1]/8,,,,2/8<7-4b[16:3]*-3<4b[16:3],,,,Cf,,,,
{16}2x/5x,,,3/4,2,,3/4,,5,,3/4,,3/4,,2,,
{16}7-2[8:1]/1,,,,3v8[8:1]/7,,,,3/5qq5[16:3]*-7[8:1],,,,Cf,,,,
{16}4x/8x,,,5/6,7,,5/6,,4,,5/6,,5/6,,74,,||新年快乐,写自己想写的吧
{16}Cf,,5,,25,,4/7<5<7[4:1],,7,,2b,,2b,,3,,
{16}Cf,,4,,74,,5/2,,2,,{32}7b/B1,B2,,,7b/B1,B2,,,6,,,,
{16}7-4[8:1]/1,,8,,7/3v8[8:1],,2,,5/3,,6,,7/8,,{32}1p6[8:17],2,3,4,
{32}5b/Cf,6,7,8,1,2,3,4,5b/Cf,6,7,8,1,2,3,4,5b/Cf,6,7,8,1,2,3,4,5b/Cf,6,7,8,1,2,3,4,
{32}5b/Cf,6,7,8,1,2,3,4,5b/Cf,6,7,8,1,2,3,4,5b/Cf,6,7,8,1b,2,3b,4,{16}5bp6-1^8[8:15],,,,
{16},,,,,,,,,,,,,,,,||祝大家新的一年能写出比红眼还厉害的神谱
{16}2-4[8:1],,2,,2/E3f,,,,5-3[8:1],,5,,5/E5f,,,,
{16}Cf,,,,,,Cf,,,,Cf,,Cf,,,,
{16}Cf,,,,,,E1f,,,,4x/5x,,3b/6b,,,,
{16}1-5[4:1],,5,,5,,,,8-4[4:1],,4,,4,,,,
{16}7-3[4:1],,3,,3,,,,6-2[4:1],,2,,2,,,,
{16}5^3[4:1],,,,3^8[4:1],,Cf,,8<4[4:1],,Cf,,4>4>4>4>4[4:4]*>3[32:1]>2[32:2]*>1[32:3]*>8[32:4]*>7[32:5]*>6[32:6]*>5[32:7]*>4[32:8],,Cf,,{32}D4,D3,D2,D1,D8,D7,{32}D6,
{32}D5/4!^3[999#4:1],D4/3!^2[999#4:1],D3/2!^1[999#4:1],D2/1!^8[999#4:1],D1/8!^7[999#4:1],
D8/7!^6[999#4:1],D7/6!^5[999#4:1],D6/5!^4[999#4:1],D5/4!^3[999#4:1],
D4`3!^2[999#4:1],D3/2!^1[999#4:1],D2`1!^8[999#4:1],D1/8!^7[999#4:1],
D8`7!^6[999#4:1],D7/6!^5[999#4:1],D6`5!^4[999#4:1],D5/4!^3[999#4:1],
D4`3!^2[999#4:1],D3/2!^1[999#4:1],D2`1!^8[999#4:1],D1/8!^7[999#4:1],
D8`7!^6[999#4:1],D7/6!^5[999#4:1],D6`5!^4[999#4:1],D5,D4f/Chf[8:7],,
||祝大家新的一年谱力术比wox,艺比水母,逼如doro,冠比亚麻,国比lkd,.....哎呀哎呀说不下呀!
除了写谱之外,生活也要开开心心,天天都能“晚上好mmfc”那样的分享美食,打出高分,生活如意,工作顺心!
(翻译:术(曲)如woxxow(mmfc6);艺(术)如水母;国(语歌曲)如l雷k克d顿;冠(mmfc4)比(小豆)亚麻,(装)逼如doro(ro))
老吴留言:感觉都不如我
{16},B2f,,3,,B2f,,1,,B2f,,3,,B2f,,1b-3-5[8:2]b/8b,,,7,1-7[8:1]b,,8,,1,,
{16}B2/B3/E3f,,B2/B3/E3f,,5,6,7b/Chf[8:7],,B7f,,8,,B7f,,6,,
{16}B7f,,8,,B7f,,4/6,,3,7,5w1[8:1]b,,4/6,,5b`Cf,,
{16},,,,,,E4,,B5,,B3,E5,,,A5,,B4,,E5f/B5f,,,,
{16}E6,,B4,,B6,E5f,,,A4,E6,B5f,B3,{24}E5f,A3f,B5,
{32}A4f`E6`B4,B5f`A6`B3,A3f`D4`A5`D3,D5f`E6`D6,||给大家放个早上6点的大地红!
{16}4x-8[8:1],,,,5,,6,,7v2[8:1]*p2[8:1],,,,,,,,
{16}4qq4b[16:4],,,,4pp4[8:2],,,,4x>1b[8:1]*p8[8:1],,,,,,,,
{16}7v4[8:1],,,,8>3[8:1],,8,,7v4b[8:1]*v2[8:1],,,,,,,,
{16}5b/3b,,6,5,7,,18,,2h[8:1],,3h[8:1],,4h[8:1],,5,,
{16}5-1[8:1],,,,4,,3,,3v2-4[8:2],,,,5,,6,,
{16}1`8,,7h[16:1]`4h[16:1],,,2h[16:1]`5h[16:1],,,{32}25,36,47,58,,,,,74,63,52,41,,,,,
{16}25,,6,,1v4[8:1]*v6[8:1]/7,,82,,1,,,,1-4[8:1]/7-2q6[4:1],,,,
{16}17,,,,,,7,,65,,4,,5/3>6<3b[2:1],,,,
{16}Ch[2:1]/E3,E2,E1,E8,E7,E8,E1,E2,E3,,,,6<3>6b[2:1],,,,
{16}Ch[2:1]/E7,E8,E1,E2,E3,E2,E1,E8,E7,,,,2qq7b[8:6]*q7b[16:13],,,,
{16},,,,,,,,,,,,,,,,
{16}1/6h[16:3],,,5,6,,45,,3/4h[4:1],,1,,3h[4:1],,8,,
{16}Ch[1:1]/B8/B1/E1,,,,B2/B3/E3,,,,B5/B4/E5,,,,B7/B6/E7,,,,
{16}8>2-4b[16:4],,,,4<6-8b[16:4],,,,Cf,,E3,,E4,,E5,,
{16}5x/6x,,5x/6x,,37,,1,,24,,56,,87,,15,,
{32}4,3,2,1,8,7,6,5,8,7,6,5,4,3,2,1,5,4,3,2,1,8,7,6,1,8,7,6,5,4,3,2,
{16}1-5[8:1]/8-6[8:1],,,,1-3[8:1]/8-4[8:1],,,,1/8,,,,Cf/B5/B6,,B1/B2/B3/B4/B7/B8,,
{16}5x/6xh[16:3],,,5,7,,4h[8:1]/5,,8,,3h[8:1]/5,,1,,6/4,,
{16}8-4[8:1]/1-3[8:1],,,,8-6[8:1]/1-5[8:1],,,,8/1,,,,Cf/B6/B5,,B8/B7/B6/B5/B2/B1,,
{16}4x/3xh[16:3],,,4,2,,5h[8:1]/4,,1,,6h[8:1]/4,,8,,3/5,,
{16}7<3[8:2]/1,,,3,3q8[8:2],,2,,2,,B2/E2,,B2/E2,,1,,
{16}2>6[8:2]/8,,,6,6p1[8:2],,7,,7,,B7/E8,,B7/E8,,,,||新的一年祝大家永远纯良(少女祈祷.jpg)
{16}1>5[4:1],,,,5<1[4:1],,,,1>5[4:1],,,,5<5[32:23],,1s5[16:10],,
{16},,,,,,,,,,,,,,,,
{32}1b/8b,2b/7b,3b/6b,4b/5b,{16},,,,,,Cf/B1,E7f,B3f/B4,B5f,B1/A1f,,,,
{16}4x/6x-4[8:1],,8,1,6,,3,,25,,74,,1b/Cf,,,,
{16}62,,8-5[8:1]*-3[8:1],1,7,,8,,,,71,,B8/Cf/B4,,,,
{16}5/3-5[8:1],,1,8,3,,6,,74,,25,,8b/Cf,,,,
{16}3-1[8:1]/7,,1,8,7/3<6[8:1],,,,43,,,,B1/Cf/B5,,,,
{16}4/7<4[8:1],,,5,7,,3pp4[16:4],,1,,1h[4:1],,Cf,,,,
{16}3x-1<8[8:1],,,4,3,,7<5-1[16:4],,5,,5h[4:1],,Cf,,,,||11棒了竟然还没人玩撬棍梗
{16}4>1[8:1],,,,7<4[8:1]/4,,,,2<7[8:1]/7,,,,2/5p4>6[4:3],,,,||预祝mmfc的各位新年猛猛发财亩亩房产还能有妹妹奉承
{16}Cf,,,,,,,,,,,,,,,,
{16}1b/Cf,,2,4,3,,45,,5xb-1[8:1]/7xb,,3xb/5xb,,5xb/7xb,,,,
{16}8b/Cf,,7,4,5,,34,,1b/Cf,,3,6,5,,67,,
||祝大家新的一年学业进步,事业有成,烦恼不上身,身体倍棒吃嘛嘛香~
{48}1b/8hb[12:1],2b,3b,4b,,,,,,,,,8b/1hb[12:1],7b,6b,5b,,,,,,,,,
1b/8b,2b/7b,3b/6b,5b/4b,,,,,,,,,1b/8b,2b/7b,3b/6b,5b/4b,,,,,,,,,
{48}Cf,,,,,,B2/B3/E3f/A2/A3,,,,,,A7/D8/A8/E8/B7/B8/D3/D2/B4/B2,,,,,,,,,,,,,,,,,,,,,,,,,,,,,,,,1b`Cf,,,
{16}7b`Cf,Cf/B4/B8,,,,,,,,,,,,,,,
{16},,,,,,,,,,,,,,,,||祝大家新年能够心想事成吧
