&title=[逆] ベースラインやってる?笑
&artist=かめりあ feat. ななひら
&first=0
&des_7=络青
&wholebpm=128
&genre=ゲームバラエティ
&lv_7=逆
&inote_7=(128){1},
{8},,,E4/E5,E3,E2,C1h[4:1],,
{8},2x$`5?p2[8:3],,,,,,,
{4}4x/6xh[1:1],5,,5,
{4}3h[1:1],4,,4,
{4}7h[1:1],5,,5,
{12}3,,,,,2x/6x,3x/7x,2x/6x,3x/7x,2x/6x,3x/7x,,
{24}4xh[8:3]/5xh[8:3],,,,,,,,,,,,B2/B7,C1,E5,4xh[4:1]/5xh[4:1],,,,,,,,,
{24}B2/B7,C1,E5,4xh[4:3]/5xh[4:3],,,,,,,,,,,,,,,,,,,,,
{24}B2/B7,C1,E5,4xh[8:5]/5xh[8:5],,,,,,,,,,,,,,,,,,4x/5x,,,
{1}4x$/5x$/1?-4[2:1]/8?-5[2:1],
{4}3/7h[1:2],,4,4,
{8}1$`5?>1[4:1],,,,,8b,8b,,
{4}2h[2:3],,5,5,
{8}3,,8$`5?-8[8:1],,,2b,4b,5b,
{4}7h[1:2],5,5,1,
{8}C1hf[4:1],,,,,8b,8b,,
{4}2h[4:5],4,4,8,
{16}5$`7?>5[8:3],,,,,,,C1f,,,,,1x,,,,
{8}7h[1:2],,5,,4$`1?-4[8:1],5,1x,,
{8}4$`1?-4[8:1],5,1x,,4,8b,8b,,
{8}2h[2:3],,4,,5$`8?-5[8:1],4,8x,,
{8}5$`8?-5[8:1],4,8x,,5,2b,8b,6b,
{8}7h[1:2],,5,,4$`1?-4[8:1],5,1x,,
{8}4$`4?qq4[4:1],5,,,,8b,8b,,
{8}2h[2:3],,4,,8$`5?-8[8:1],1,5x,,
{8}8$`5?-8[8:1],1,5x,,7,2b,8b,6b,
{4}C1f/B3/B4/B5,8,8,8,
{4}C1f/B4/B5/B6,1$`5?s1[8:3],,8,
{4}C1f/B3/B4/B5,8,8,8,
{4}C1f/B4/B5/B6,1$`6?>1[4:1],7,8,
{8}C1f/1,1,2,2,3,3,4,4,
{8}C1f/8,8,7,7,6,6,5,5,
{8}C1f/1,2,3,4,C1f/8,7,6,5,
{8}C1/1x,,7b/8b,1b,1b/2b,3b,4b/5b$/8?-5[8:1],6b,
{32}5b$/5?pp5[4:1]/8b,,,,,,,,5x,,,,,,,,1$`5?-1[16:1],,,,,,,,1x/5x,C1f,,,,,,,
{4}2x/7$`2?-7[8:1],2x/3$/6?-3[8:1],6x/7$/2?-7[8:1],3x/2x,
{8}3/5h[12:1],1,4h[12:1]/6,8,3/5h[12:1],1,4h[12:1]/6$/3?<6[8:1],8,
{8}7b/3x,,1$`4?v1[8:1]*v1[8:1],1,1$`5?-1[8:1]/7?v1[8:1],,5/7,,
{8}3x/6,5/8x,3x/6,5/8x,3x/6,5/8x,3x/6,5/8x,
{4}2$/5/7?-2[8:1],7x/6$/3?-6[8:1],2$/3x/7?-2[8:1],6x/7x,
{8}4h[12:1]/6,8,3/5h[12:1],1,4h[12:1]/6,8,3/5h[12:1],1,
{32}7x,,,,E2,E3,E4,E5,8$`5?v8[8:1]*v8[8:1],,,,8,,,,8$`4?-8[8:1]/2?v8[8:1],,,,,,,,2/4,,,,,,,,
{16}3/6x,,1x,,3$/6?-3[8:1]/6$/1?<6[8:1],,8x,,1x/6x,,,,8x,8x,8x,,
{8}1x$`4?pp1[8:3],,4,,5x,,6$`3?-6[8:1],6,
{8}3/6$/8?pp6[8:3],,8x,,1x,,1$`5?-1[8:1]*-1[8:1],3/7,
{8}1$/5?>1[8:1]/5?<1[8:1]/5,,5,,3x/7x,,2/6,2$/7?>2[8:1]/6$/3?<6[8:1],
{8}3/7,3/7,,2$/7?>2[8:1]/6$/3?<6[8:1],3/7,3x/7x,,1$`6?>1[8:1],
{8}6$`1?v6[8:1],6,7x,7x,8x,8$`5?pp8[8:3],,E5,
{8}E4,E3,E2,E1,C1f/B3/B6,,1x/8x,,
{8}6$/7$/4?-6[8:1]/3?-7[8:1],8,,,2$/3$/6?-2[8:1]/5?-3[8:1],1,,,
{8}6/7$/3?z7[8:3],8x,8x,1x,1x,,2$/5/7?>2[8:1],,
{8}7/6$/3?<6[8:1],5,2$/3/7?>2[8:1],1,7/6$/3?<6[8:1],5,8/3,8,
{16}5,,5,,2/6,3/7,,2/6,,,1b/7b,,7b$`2?<7[8:1],,,,
{8}2/3$/6?>3[8:1],4,6/7$/2?<7[8:1],8,3/2,4,3$/5?v3[8:1]/6$/2?V86[8:1],4/7,
{16},,,,1x/7x,1x/7x,,2x/6x,,,1b,,6b$`3?<6[8:1],,5b,,
{8}2$/3/7?>2[8:1],1,7/6$/3?<6[8:1],5,2/3,1,2$/7$/5?v2[8:1]/5?v7[8:1],3/6,
{16}5,,,,3/8,3/8,,4/6,,,2b/8b,,2b$/8b/7?-2[8:1],,,,
{8}7/6$/3?-6[8:1],5,2$/3/7?-2[8:1],1,7/6,5,3$/6$/5?v3[8:1]/2?V86[8:1],2/5,
{16},,,,1x/7x,1x/7x,,2x/6x,,,4,,2$/5?-2[8:1]/6$/1?-6[8:1],,3/7,,
{8}1/5,,1/8,7,6/8,1,1/2,3,
{8}2/4,1,2$/6?-2[8:1]/8$/4?-8[8:1],2/8,4x/6x,,3b/7b,,
{8}2/8,3,1/4,8,7/8,6,3$/7?-3[8:1]/5$/1?-5[8:1],3/5,
{16}1x/7x,,,,2x/6x,2x/6x,,8b,,,2b/6b,,3b/5b,,2b/6b,,
{8}7/8,6,5/7,8,1/2,3,2/4,1,
{8}7/8,5,4$/6$/8?-4[8:1]/2?-6[8:1],4/6,2x/8x,,3b/7b,,
{8}2/4,5,5/6,7,5/8,7,4/6,3,
{8}2/4,1,3/5$/1?V35[4:1],4,1/6$/8?v6[8:1],7,8,,
{16}1x$/7x/5?s1[2:1],,,,,,,,,,,,,E8,,E7,
{16},E6,,3xh[4:1],,,,,,,4x,,4x$/4?qq4[4:1]/4?pp4[4:1],,,,
{16},,,,,,,,,2x/6x,2x/6x,2x/6x,2x/6x,,,,
{4}4x/8x$`5?<8[8:1],3x,1x$/5x`4?>1[8:1],6x,
{24}7b,,7,5,,5,6,,6,4,,4,5,3,5,3,,2xh[6:1]/6xh[6:1],,,,,,,
{24}2,,2,4,,4,3,,3,5,,5,4,6,4,6,,3xh[6:1]/7xh[6:1],,,,,,,
{24}7,,7,5,,5,6$`4?q6[8:3],,6,4,,4,,,,,,,,,,,,,
{16}2h[8:3]/6h[8:3],,,,,,,,3/7h[4:1],,,,,B2/B3/E3,,,
{1}C1xh[16:29]/B6/B7/E7,
{16},,,,,,,,,,,,,B1/E1/B8,,,
{1},
{1},
{1},
E
