&title=KING is BACK!!
&artist=A-One
&first=0
&lv_5=14+
&des_5=AM
&inote_5=
(176){4},{16},,,7-3[8:1]/8-4[8:1],,,,7-5[8:1]/8-2[8:1],,,,8z4[8:1]/7z3[8:1],
,,,,,,,1-5[8:1]/2-6[8:1],,,,1-7[8:1]/2-4[8:1],,,,1s5[8:1]/2s6[8:1],
,,,,,,,7-3[8:1]/6-2[8:1],,,,7-1[8:1]/6-4[8:1],,,,7z3[8:1]/6z2[8:1],
,,,,,,,2-6[8:1]/3-7[8:1],,,,2-8[8:1]/3-5[8:1],,,,2s6[8:1]/3s7[8:1],
,,,,,,,6-2[8:1]/5-1[8:1],,,,6-8[8:1]/5-3[8:1],,,,6z2[8:1]/5z1[8:1],
,,,,,,,3-7[8:1]/4-8[8:1],,,,3-1[8:1]/4-6[8:1],,,,3s7[8:1]/4s8[8:1],
,,,,,,,5-1[8:1]/4-8[8:1],,,,5<8[8:1]/4>1[8:1],,,,5s1[8:1]/4z8[8:1],
,,,,,,,1,8,2,7,1,8,3,6,1,
8,4,5,{48}1b/8b,7b/2b,6b/3b,{16}5b/4b,{8},{16}5-1[8:1],,5,,6-2[8:1],,6,,7-3[8:1],
,7,,8,,8,,3,1,4,2,5,3,6,4,6V83[8:1]/4V27[8:1],
,6/4,,,,,,1-5[8:1],,1,,2-6[8:1],,2,,3-7[8:1],
,3,,4,,4,,3,5,1,7,8,8,8,8,1,
7,3,5,3b/5b,,,,4-8[8:1],,4,,3-7[8:1],,3,,2-6[8:1],
,2,,1,,1,,6,8,5,7,4,6,3,5,3V16[8:1]/5V72[8:1],
,3/5,,,,,,8-4[8:1],,8,,7-3[8:1],,7,,6-2[8:1],
,6,,5,,5,,6,4,8,2,1,1,1,1,8,
2,6,4,4b/6b,,2v5[8:1],1,3,8,2,,7,,7v4[8:1],8,6,
1,7,,2,,2,1,3,8,4,7,5,6,8,7,1,
6,2,5,3,4,3/4,,{32}2b-5[8:1]/6b-1[8:1],3,4,5,6,7,8,1,{16}2b/6b,,,,{32}3b/7b,2b/6b,
1b/5b,8b/4b,{8},,,{16}6,5,6,5,5,4,5,4,4,
3,4,{8}3,{16},,,6v1[8:1],5,7,4,6,,3,,3v8[8:1],
4,2,5,3,,6,,3,4,2,5,1,6,8,7,5,
6,4,7,3,8,2/1,,{32}7b-4[8:1]/3b-8[8:1],6,5,4,3,2,1,8,{16}3b/7b,,,,{32}2b/6b,3b/7b,
4b/8b,5b/1b,{8},,,{16}2,1,2,1,1,8,1,8,8,
7,8,7,8/4,,4/8,,{64}4/8,1/5,2/6,3/7,{16},,,2,1,2,1,3,
8,3,8,4,7,4,7,5,6,5,6,8,7,8,7,8,
7,2b-4[8:1]/5b-1[8:1],,,,5b/2b,,,,4-7[8:1],,8-3[8:1],,4-1[8:1],,8-5[8:1],
,4w8[8:1],,8,,4,,,,6-3[8:1],,2-7[8:1],,6-1[8:1],,2-5[8:1],
,6w2[8:1],,2,,6,,,,,,8,1,8,2,8,
3,8,4,7,4,6,4,5,4,3,4,2,4,1,4,8,
4,7,4,6,4,5,4,5,5,5,5,5,5,5,5,5,
5,5,5,5,5,5,5,5b/4b,,3b/6b,,2b/7b,,1b/8b,,,,,,{32}5bw1[8:1],
4,3,2,1,8,7,6,{16}5b,,,,{32}4bw8[8:1],5,6,7,8,1,2,3,{16}4b,
,,,{32}6bw2[8:1],5,4,3,2,1,8,7,{16}6b,,,,{32}3bw7[8:1],4,5,6,7,8,1,2,{16}3b,
,,,{32}5bw1[8:1],4,3,2,1,8,7,6,{16}5b,,,,{32}4bw8[8:1],5,6,7,8,1,2,3,{16}4b,
,,,4-2[8:1],,5-7[8:1],,4p8[8:1],,5q1[8:1],,4p7[8:1],,5,,4,
,5,,{32}8bw4[8:1],1,2,3,4,5,6,7,{16}8b,,,,{32}1bw5[8:1],8,7,6,5,4,3,2,{16}1b,
,,,{32}7bw3[8:1],8,1,2,3,4,5,6,{16}7b,,,,{32}2bw6[8:1],1,8,7,6,5,4,3,{16}2b,
,,,{32}8bw4[8:1],1,2,3,4,5,6,7,{16}8b,,,,{32}1bw5[8:1],8,7,6,5,4,3,2,{16}1b,
,,,1b,8,1b,8,{32}1b,2,3,4,5,6,7,8,1b,2,3,4,5,6,7,8,{16}4b>1[8:1],
,,,{32}8,7,6,5,8,7,6,5,{16}1/4-8[8:1],,1,,1/4,,1,,1/8-3[8:1],
,1,,1/8,,1,,1/3-6[8:1],,1,,1/3,,1,,1/6-2[8:1],
,1s5[8:1],,1/6,,1,,4,,,,7q6[8:1],,7,,2p3[8:1],
,2,,5,,5,,{32}8b,7,6,5,4,3,2,1,8b,7,6,5,4,3,2,1,{16}5b<8[8:1],
,,,{32}1,2,3,4,1,2,3,4,{16}8/5-1[8:1],,8,,8/5,,8,,8/1-6[8:1],
,8,,8/1,,8,,8/6-3[8:1],,8,,8/6,,8,,8/3-7[8:1],
,8z4[8:1],,8/3,,8,,5,,5,4,5,4,6,3,7,
2,8,1,8,1,7,2,{32}2b/7b,3,4,5,6,7,8,1,7b/2b,6,5,4,3,2,1,8,3b/7b,2/6,
1/5,8/4,{8},{64}1b/5b,2b/6b,3b/7b,4b/8b,{16},,,5v8[8:1],,5,,6v1[8:1],,6,,7v2[8:1],
,7,,8,,8,,4,4,5,3,4,4,5,3,4pp3[8:1]/3qq4[8:1],
,3/4,,,,,,1v6[8:1],,1,,2v7[8:1],,2,,3v8[8:1],
,3,,4,,4,,1,1,1,1,1,1,1,1q6[8:1]*p4[8:1],1,
1,1,{8}1b,{16},,,4v1[8:1],,4,,3v8[8:1],,3,,2v7[8:1],
,2,,1,,1,,5,5,6,4,5,5,6,4,5qq6[8:1]/6pp5[8:1],
,6/5,,,,,,8v3[8:1],,8,,7v2[8:1],,7,,6v1[8:1],
,6,,5,,5,,8,8,8,8,8,8,8,8p3[8:1]*q5[8:1],8,
8,8,{8}8b,{16},,,8-6[8:1]/1V75[8:1],,,,1-3[8:1]/8V24[8:1],,,,8<6[8:1]/1p5[8:1],
,,,8q4[8:1]/1>3[8:1],,,,8/1w5[8:1],,,,1,,,,4/7,
,4-8[8:1]/7-5[8:1],,,,4b/7b,,,,2-4[8:1],,1-5[8:1],,2-6[8:1],,1-7[8:1],
,2w6[8:1],,1,,2,,,,8-2[8:1],,7-3[8:1],,8-4[8:1],,7-5[8:1],
,8w4[8:1],,7,,8,,,,,,7,8,7,1,7,
2,7,3,8,3,1,3,2,3,4,3,5,3,6,3,7,
3,8,3,1,3,2,3,2,2,2,2,2,2,2,2,2,
2,2,2,2,2,2,2,2b/1b,,8b/3b,,7b/4b,,6b/5b,,,,,,{32}8bw4[8:1]*w4[8:1],
7h[64:1],6h[64:1],5h[64:1],4h[64:1],3h[64:1],2h[64:1],1h[64:1],{16}8b,,,,{32}1bw5[8:1]*w5[8:1],2h[64:1],3h[64:1],4h[64:1],5h[64:1],6h[64:1],7h[64:1],8h[64:1],{16}1b,
,,,{32}7bw3[8:1]*w3[8:1],6h[64:1],5h[64:1],4h[64:1],3h[64:1],2h[64:1],1h[64:1],8h[64:1],{16}7b,,,,{32}2bw6[8:1]*w6[8:1],3h[64:1],4h[64:1],5h[64:1],6h[64:1],7h[64:1],8h[64:1],1h[64:1],{16}2b,
,,,{32}8bw4[8:1]*w4[8:1],7h[64:1],6h[64:1],5h[64:1],4h[64:1],3h[64:1],2h[64:1],1h[64:1],{16}8b,,,,{32}1bw5[8:1]*w5[8:1],2h[64:1],3h[64:1],4h[64:1],5h[64:1],6h[64:1],7h[64:1],8h[64:1],{16}1b,
,,,8v5[8:1],,1v6[8:1],,8-4[8:1],,1-3[8:1],,8<5[8:1],,1,,8,
,1,,{32}5bw1[8:1]*w1[8:1],6h[64:1],7h[64:1],8h[64:1],1h[64:1],2h[64:1],3h[64:1],4h[64:1],{16}5b,,,,{32}4bw8[8:1]*w8[8:1],3h[64:1],2h[64:1],1h[64:1],8h[64:1],7h[64:1],6h[64:1],5h[64:1],{16}4b,
,,,{32}6bw2[8:1]*w2[8:1],7h[64:1],8h[64:1],1h[64:1],2h[64:1],3h[64:1],4h[64:1],5h[64:1],{16}6b,,,,{32}3bw7[8:1]*w7[8:1],2h[64:1],1h[64:1],8h[64:1],7h[64:1],6h[64:1],5h[64:1],4h[64:1],{16}3b,
,,,{32}5bw1[8:1]*w1[8:1],6h[64:1],7h[64:1],8h[64:1],1h[64:1],2h[64:1],3h[64:1],4h[64:1],{16}5b,,,,{32}4bw8[8:1]*w8[8:1],3h[64:1],2h[64:1],1h[64:1],8h[64:1],7h[64:1],6h[64:1],5h[64:1],{16}4b,
,,,1b,1,2b,2,{32}3b,4,5,6,7,8,1,2,3b,4,5,6,7,8,1,2,{16}6b<1[8:1],
,,,{32}2,3,4,5,2,3,4,5,{16}1/6V42[8:1],,1,,1/6,,1,,1/2p5[8:1],
,1,,1/2,,1,,1/5V73[8:1],,1,,1/5,,1,,1/3-8[8:1],
,1V74[8:1],,1/3,,1,,5,,,,7pp8[8:1],,7,,3pp4[8:1],
,3,,7,,2,,{32}6b,7,8,1,2,3,4,5,6b,7,8,1,2,3,4,5,{16}3b>8[8:1],
,,,{32}7,6,5,4,7,6,5,4,{16}8/3V57[8:1],,8,,8/3,,8,,8/7q4[8:1],
,8,,8/7,,8,,8/4V26[8:1],,8,,8/4,,8,,8/6-1[8:1],
,8V25[8:1],,8/6,,8,,4,,{32}4,3,2,1,8,7,6,5,4,3,2,1,8,7,
6,5,4,3,2,1,8,7,6,5,{8},{32}3b/7b,4,5,6,7,8,1,2,3b/5b,4,3,2,1,8,7,6,5b/1b,2/6,
3/7,4/8,{8},{64}4b/8b,3b/7b,2b/6b,1b/5b,{16},,,5v3[8:1],,5,,6v4[8:1],,6,,7v5[8:1],
,7,,8,,8,,1,1,1,1,2,2,2,2,2v7[8:1]/3q7[8:1],
,2/3,,,,,,1v7[8:1],,1,,2v8[8:1],,2,,3v1[8:1],
,3,,4,,4,,5,5,6,6,7,7,8,8v5[8:1]*z4[8:1],8,
8,8,{8}8b,{16},,,4v6[8:1],,4,,3v5[8:1],,3,,2v4[8:1],
,2,,1,,1,,8,8,8,8,7,7,7,7,7v2[8:1]/6p2[8:1],
,7/6,,,,,,8v2[8:1],,8,,7v1[8:1],,7,,6v8[8:1],
,6,,5,,5,,4,4,3,3,2,2,1,1v4[8:1]*s5[8:1],1,
1,1,{8}1b,{16},,,{64}7b,6b,5b,4b,{16}3b,{8},{64}2b,3b,4b,5b,{16}6b,{8},{64}8b/1b,2b/7b,3b/6b,4b/5b,
{16},,,{64}5b/4b,6b/3b,2b/7b,1b>8[64:181]/8b<1[64:181],
E
