&title=永遠の灯
&artist=美谷玲実
&first=-0.01
&des=Hanario
&lv_5=13+
&inote_5=(132)
{1},
{16}3h[8:1],,4,2,,,47,,6h[8:1],,5,7,,,38,,
{16}2h[8:1],,1,3,,,16,,7h[8:1],,8,6,1,5,2,,
{8}2b-5[8:1]/6b-2[8:1],,2b^7[8:1],,2b-5[8:1]/6b-2[8:1],,6b^3[8:1],,
{8}2b-5[8:1]/6b-2[8:1],,2b/6b,,4b,{16},37,2b/6b,,26,,
{8}1b/4b-6[8:1],5,2-4[8:1]/4x,1,2/4-6[8:1],5,4x/2-4[8:1],1,
{8}2/4-6[8:1],5,2/4x,1,{24}7,8,7,8,7,8,7bh[8:1],,,8,,,
{8}6b/8b-2[8:1],1,6-8[8:1]/8x,5,6/8-2[8:1],1,8x/6-8[8:1],5,
{8}6/8-2[8:1],1,6/8x,5,{24}3,4,3,4,3,4,3bh[8:1],,,4,,,
{8}2b/5b-7[8:1],6,2^5[8:1]/5x,1,2/5-7[8:1],6,5x/2^5[8:1],1,
{8}5-7[8:1]/2,6,5x/2,1,{24}7,8,7,8,7,8,7bh[8:1],,,8,,,
{8}1b/8b-6[8:1],7,3^8[8:1]/8x,4,3/8-6[8:1],7,8x/3,4,
{8}5p4[4:1],,5/4>7[4:1],,5x,{16},4,{16}4,,6,,
{8}5b-3[8:1]/4,,56,,4/5-3[8:1],,65,,
{8}4/5-3[8:1],,5qq6[8:3]/6,,6,,7b,,
{8}4b-7[8:1],,43,,5/4-7[8:1],,34,,
{8}5/4-7[8:1],,4V27[8:2]/3,,7V14[4:1]/4,,6b,,
{8}8b-4[8:1],,87,,1/8-4[8:1],,78,,
{8}1/8-4[8:1],,8qq4[8:3]/7,,3,,2b,,
{8}1b>7[8:2],,7,,8<2b[8:2],,2,,
{8}1v4[8:1],,5,,{24}3x,4x,3x,4x,3x,4xh[24:4],{8}3xbh[8:1],,
{8}3h[8:1]/5,7,4h[8:1]/8,7,6h[8:1]/4,2,5h[8:1]/1,2^7[8:1],
{8},6q3[8:1],,4,5q4[16:2]*v4[16:2],46,,,
{8}7h[8:1]/1,3,8h[8:1]/4,3,2h[8:1]/8,6,1h[8:1]/5,6^3[8:1],
{8},2qq7[8:3],1,3^6[8:1],,C,,,
{16}51,,1-5[8:1],2,3v4[8:1],,1,,3,,6,,7,,8v3[8:1],,
{8},1h[4:1],,3x-7[8:1],2-6[8:1],3,2,8,
{8}8qq4[8:3],,3,4qq2[16:3]*<2[16:4],4,,,,
{16}3h[16:1],,4h[16:1],,2h[16:1],,5p1[8:1],5,2^5[8:1],,5,,2x,,7,,
{8}6h[8:1]/7h[8:1],,8h[8:1]/5h[8:1],,6v1[8:1]/7h[8:1],,7,8h[4:1],
{8},7^2[8:1],,7p4[8:3],,1x,1x,1x,
{8}2h[8:1],,1h[8:1]/4h[8:1],,2q4[8:2]/3h[8:1],,7,7h[4:1],
{8},6^3[8:1],,7-3[8:1],,3,2,1,
{8}1^6[8:1],,5,5-8[8:1],,2,3,4>7[4:1],
{8},7<2[24:6],,4q5[4:1],,,,,
{16}2h[16:3],,,3h[16:3],,,4^1[8:1],,,,6,,7,,8,,
{16}7h[16:3],,,6h[16:3],,,5^8[8:1],,,,4,,4,3,2,,
{8}2b-5[8:1]/6b-2[8:1],,2b^7[8:1],,2b-5[8:1]/6b-2[8:1],,6b^3[8:1],,
{8}1,1,{16}1,4,1,5,{32}E2,E3,E4,E5,E6,E7,E8,E1,E2f/5bx,,,,,,,,
{16}7-3[8:1]/3h[8:1],,6,2,7-1[8:1],,4,,7,2,2,,4,,5-1[8:1],,
{8}6,4-6[8:1]/5,2-4[8:1],4-1-5[16:4],2,{16}7,7,,,,,
{8}6/5xh[8:1],8,3/4h[8:1],1,6/5h[8:1],8qq8[4:1],1pp1[4:1],8,
{8}1,,7V53[16:3],,2,2,,,
{16}2-6[8:1]/6h[8:1],,3,7,2-4[8:1],,5,,2,7,7,,5,,4-8[8:1],,
{8}3,5-3[8:1]/4,7-5[8:1],5-8-4[16:4],7,{16}2,2,,,,,
{8}2h[8:1],1h[8:1],8h[8:1],7h[8:1],{16}6h[16:3],,,5h[16:3],,,4-8[4:1],,
{8}4h[8:2],,,,{16}2h[16:3],,,1,3,1,4,,
{8}7/5h[8:1],6,7/8h[8:1],6,7-5-1[4:1]/5h[8:1],6,3,4-8[16:2],
{8},7,6,5-1[8:1],,4,3,2,
{8}2/4h[8:1],3,2/1h[8:1],3,2-4-8[4:1]/4h[8:1],3,6,5-1[16:2],
{8},2,3,4-8[8:1],,7,6,5,
{8}2/4h[8:1],B3,2/8h[8:1],B3,2-6-2[4:1]/4h[8:1],B3,72,8^5[16:2],
{8},3,2,1^4[8:1],,6,7,8,
{8}7/5h[8:1],B6,7/1h[8:1],B6,7-3-7[4:1]/5h[8:1],B6,27,1^4[16:2],
{8},6,7,8-4[8:1],3,{16},2,2,,1,,
{8}2b^4[8:1]/5b,1,2/5-7[8:1],6,5/3^5[8:1],{24}2,,,{8}3/6-8[8:1],7,
{8}4^6[8:1]/6,3,4/8,7,{24}7,8,6,1,7,8,6b,,,7/8,,,
{8}7b^5[8:1]/4b,8,7/4-2[8:1],3,4/6^4[8:1],{24}7,,,{8}6/3-1[8:1],2,
{8}5^3[8:1]/3,6,5/1,2,{24}2,1,3,8,2,1,3b,,,2/C,,,
{8}1b^4[8:1]/5b^8[8:1],,1b-5[8:1],,4b^1[8:1]/1b^6[8:1],,4b-8[8:1],,
{8}8b^3[8:1]/4b^7[8:1],,8b-4[8:1],,3b,{16},26,6b-1[16:1]/2b-5[16:1],,15,,
2bV85[2:2]/6bV41[2:2]/Cf,
&inote_6=
