&title=絶対零度フェスティバル
&artist=DIVELA
&first=0
&des=MYOU
&lv_5=13+
&des_5=MYOU
&inote_5=(180){1},
{8}4,,4,,4,5,2b/7b,,
{8}3-8[8:1]/4,3h[4:1]/4,,,6-1[8:1]/5,6h[4:1]/5,,,
{8}3-8[8:1]/4,3h[4:1]/4,,,6-1[8:1]/5,6h[4:1]/5,,,
{8}3/5,3h[4:1]/5,7,7,6/4,6h[4:1]/4,2,2,
{16}3,5,3,5,4,6,4,6,5-1[8:1],7,5,7,,,,,
{16}28,,37,,6,5,6,,7-4[8:1]/4,,3,,2,,,,
{16}71,,62,,3,4,3,,2-5[8:1]/5,,6,,7,,,,
{16}18,,27,,5,4,5,,26,,3,,47,,6,,
{16}5<8[8:1]/2,,2,,3,,3,,4-8[8:1]/7,,6,,5,,,,
{16}71,,62,,3,4,2,,1>4[8:1]/5,,6,,7,,,,
{16}28,,37,,6,5,7,,8<5[8:1]/4,,3,,2,,,,
{16}81,,72,,4,5,4,,73,,6,,52,,3,,
{16}46,,7,,18,,2,,3h[4:1]/5h[4:1],,,,,,5,,
{8}6,4,3,4-6[8:1],,3,4-2[8:1],,
{8}6h[4:1],,2,3,4-1[8:1]/5-8[8:1],,,,
{8}2/7h[4:1],,5,5,4,4,3,5,
{8}2,6,4,7,8-4[8:1],1b,1bv3[8:1]*v7[8:1],,
{8},,8,1,26,5,4,8,
{8}5,6,1,17,6-3[8:1],3V58[4:1],4b,,
{8},2,1,8,37,4,5,26,
{8}6/2-5[8:1],,8,7-4[8:1],,1,2,3-8[8:1],
{8},7,7h[8:3],1,2,3,6/4>1[8:1]*<7[8:1],,
{8},,8/2h[8:3],8,7,6,3/5<8[8:1]*>2[8:1],,
{8},,1/7h[8:3],1,2,3,46,7,
{8}5,8,1,4,3,47,4>1[8:1]/7<4[8:1],,
{8},,1,8,73,4,5,1,
{8}4,3,8,82,3qq5[8:3],6,5b,,
{8},7,8,1,62,5,4,73,
{8}8,1,26,26,4,37,5,26,
{1}8h[1:6]/4h[8:7],
{1}5h[8:7],
{1}6h[8:7],
{1}7h[8:7],
{1}1h[8:7],
{1}2h[8:7],
{8}3v1[4:1],,,8<5[4:1],8,,2,3,
{8}4,,4,,4,6,1bq5[8:1]/5b,,
{8}16,8p4[8:1],,38,1q5[8:1],,16,8h[4:1],
{8},2,46,8,17,5,2/8<5[8:1],4,
{8}38,1>4[8:1],,16,8<5[8:1],,38,1h[4:1],
{8},7,35,1,2-5[8:1]/8,4/6-1[8:1],2b,6b,
{8},28,37,46,5<8[8:1],6,3,4>1[8:1],
{8},7,5,4,8qq6[8:1]/2pp4[8:1],,28,,
{8},71,62,53,{16}4,5,4,5,4,5,3,6,
{16}3,6,2,7,1-5[8:1],8,2,7,1b,,,,8b-4[8:1],4,7,3,
{8}8,1-5[8:1],,61,8-4[8:1],,83,1h[4:1],
{8},7,53,1,82,4,7/1>4[8:1],5,
{8}61,8<5[8:1],,84,1>4[8:1],,41,8h[4:1],
{8},2,64,8,7-4[8:1]/1,5/3-8[8:1],7b,3b,
{8},12,38,47,6-1[8:1],25,3-8[8:1],4,
{8},7,5,4,2>5[8:1]/8q5[8:1],,28,,
{8},78,16,25,{16}3,4,3,4,3,4,2b,3,
{16}2,3,2,3,2,3,1b,8,1,8,{24}1,2,3,4>1[8:1]/6<1[8:1],,,,,,
{16}4bpp8[2:1]/6b,,,,,,,,1,,2,,3,,,,
{16}71,,62,,3,4,3,,2-5[8:1]/5,,6,,7,,,,
{16}18,,27,,5,4,5,,26,,3,,47,,6,,
{16}5<8[8:1]/2,,2,,3,,3,,4-8[8:1]/7,,6,,5,,,,
{16}71,,62,,3,4,2,,1>4[8:1]/5,,6,,7,,,,
{16}28,,37,,6,5,7,,8<5[8:1]/4,,3,,2,,,,
{16}81,,72,,4,5,4,,73,,6,,52,,3,,
{16}46,,7,,2/8<5[8:1],,3,,4h[4:1],,,,6,4,6,4,
{8}6-8[8:1],5,4-2[8:1],5,6-8[8:1],5,4V28[4:1],5,
{8},7,6,5,53,62,53,62,
{8}3-1[8:1],4,5-7[8:1],4,3-1[8:1],4,5V71[4:1],4,
{16},,2,,3,,4,,5,,6,4,6,4,6,4,
{8}6<8[8:1],5,4>2[8:1],5,6<8[8:1],5,4qq3[4:1],5,
{8},7,6,5,53,62,53,62,
{8}3>1[8:1],4,5<7[8:1],4,3>1[8:1],4,5pp6[4:1],4,
{8},2,3,4,5h[8:1],6h[8:1],7h[8:1],8,
{1}6b/1b-4[4:14],
{1}5h[2:1],
{1}6h[2:1],
{1}7h[2:1],
{1}8-5[4:14]/3,
{1}4h[2:1],
{1}3h[2:1],
{1}2V41[2:1],
{8}2b/6b,3,3,26,3,3,26,3,3,
{8}26,3,3,26,3,4,5,
{8}7b/3b,6,5,73,6,5,73,6,5,
{8}73,6,5,7b/3b,5b,2b/6b,4b,
{8}3b/5b,2,46,7,35,2,46,7,
{8}24,1,57,8,24,1,57,8,
{16}2b,5,4,5,4,5,1b,5,4,5,4,5,7b,5,4,5,
{8}4,,4,,4,7,1bq5[8:1]/5b,,
{8}16,8p4[8:1],,38,1q5[8:1],,16,8h[4:1],
{8},2,56,8,17,5,2/8<5[8:1],4,
{8}83,1>4[8:1],,15,8V64[8:1],,48,1h[4:1],
{8},7,35,1,2-5[8:1]/8,4/6v1[8:1],2b,6b,
{8},28,37,46,5<8[8:1],7,2,4>1[8:1],
{8},8,6,4,2V46[8:1]/8-4[8:1],,28,,
{8},71,62,53,{16}4,5,3,5,4,5,3,6,
{16}2,6,3,7,1-5[8:1],7,2,8,1b,,,,{32}8b,7,6,5,4,3,2,1,
{32}84,7,6,5,{8}1-5[8:1],,41,7-3[8:1],,74,1h[4:1],
{8},7,43,1,82,4,7/1>4[8:1],5,
{8}71,5<8[8:1],,15,4V28[8:1],,48,5h[4:1],
{8},6b,8b/7b,2b/1b,4bV68[8:1]/3bv1[8:1],,3b/4b,,
{16},,12,,38,,47,,6,5,6,,47,,3,5,
{16}2,4,1,,28,,37,,4-1[8:1]/6>3[8:1],,,,46,,,,
{8},78,16,25,{16}3,4,3,4,3,4,2b,3,
{16}2,3,2,4,2,5,1b,7,2,6,{24}1,2,3,4>1[8:1]/8<5[8:1],,,,,,
{4}4b/8b>8[2:1],,,1,
{8}3h[8:1]/4h[8:1],,17,,5h[8:1]/6,7,28,,
{8}3h[8:1]/4h[8:1],,17,,5h[8:1]/6,7,28,,
{8}3h[8:1]/4h[8:1],,18,,5h[8:1]/6,7,18,2,
{8}3h[8:1]/8h[8:1],,24,,6h[8:1]/1,8,57,,
{8}3h[8:1]/8h[8:1],,24,,6h[8:1]/1,8,57,,
{8}3h[8:1]/8h[8:1],,24,3,45,6,57,8,
{8}57,46,35,24,{16}1,5,2,6,3,7,4,8,
{8}5b,5,56,5,57,5,58,5,
{8}47,7,37,7,47,7,17,7,
{8}2b/6b,2,24,2,26,2,28,2,
{8}35,6,57,8,57,4,35,2,
{8}1b/7b,6,35,6,18,2,45,3,
{8}28,7,46,7,81,3,54,2,
{8}1b/7b,26,34,25,18,37,56,47,
{16}18,,2,1,3,8,4,7,5,6,8,7,1,6,2,5,
{8}3-8[8:1]/4,3h[4:1]/4,,,6-1[8:1]/5,6h[4:1]/5,,,
{8}3-8[8:1]/4,3h[4:1]/4,,,6-1[8:1]/5,6h[4:1]/5,,,
{8}3/5,3h[4:1]/5,8b,7b,6/4,6h[4:1]/4b,1b,2,
{24}3,4,5,8,7,6,1,2,3,7,6,5,8-4[8:1],1,2,3,4,5,,,,,,,
{1}2b/6b,
