&title=The End Years
&artist=Sta
&first=0
&des=Tail_R
&lv_5=13+
&inote_5=(150)
{1},
{1},
{1}4>5[2:3]/5,
{8},,,,,,8,8,
{1}4qq8[2:3],
{8},,,7b-4b[32:5],,,,,
{8}2h[4:1]/4x,,4,2h[4:1]/5,,5,2h[8:1]/6,,
{8}7xh[4:1]/3,,3,7h[4:1]/4,,4,7h[8:1]/5,,
{8}4xh[4:1]/6,,6,4h[4:1]/7,,7,4h[8:1]/8,,
{8}1xh[4:1]/3,,3,8h[4:1]/2-6[8:1],,2,7bx,,
{16}7h[8:1]/5h[8:1],,,6h[8:1]/4h[8:1],,,5h[8:1]/3h[8:1],,,,2,4,2,4,3,,
{16}1h[8:1]/3h[8:1],,,2h[8:1]/8h[8:1],,,1h[8:1]/7h[8:1],,,,6,4,5,3,4,,
{16}1h[8:1]/4h[8:1],,,2h[8:1]/5h[8:1],,,3h[8:1]/6h[8:1],,,,4,7,4,7,5,,
{16}5h[8:1]/8h[8:1],,,7h[8:1]/4h[8:1],,,3h[8:1]/6h[8:1],,,,5,2,4,1,3,,
{8}2b>8[8:9]/8,,,1h[4:1],,,3qq4[8:3],,
{4},,,C,
{16}3/4,,,,4/5,,,,6/5h[8:3],,,7,,,7,,
{8}8/2,,3/1,,2-4[32:3]/4-6[32:3],,,,
{16}5/7,,,,6/4,,,,3/5h[8:3],,,2,,,2,,
{8}1/4h[4:3],,8,8>6[8:3],,,,,
{16}1x-5[8:1],,,,3,,,,4^1[8:1]/6,,,7,,,8qq5[16:6]*pp3[16:6],,
{4},,,E7/B6/Cf/B2/E3,
{8}4-8[8:1],,7,7-4[8:1],,2,2^7[8:1],,
{8}2/4,,5h[2:1],8xV61[4:1],,,,,
{16}6h[8:1]/2x,,,4/6h[8:1],,,6h[8:1]/8,,8,7,1,8,2,,3/5,,
{16}4,5,3,,5,4,6,,2,7,4,5,3,,1/8,,
{8}1-5[8:1]/8,,6,6-1[8:1],,3,3^6[8:1],,
{8}3/1,,8h[2:1],5xV73[4:1],,,,,
{8}4-7[8:1]/1,,2,2-5[8:1],,2/1,{16}8,7,6,5,
{16}4/3hxb[8:1],,,3hb[8:1]/1,,,3hb[8:1]/7,,7b-1[32:3]*-5[32:3],,,,,,,,
{16}3hx[4:1]/4x,,1,,{24}1b,8,7,6h[8:1],,,{16}3,4,3,6,5,6,1,,
{16}7h[4:1]/8,,5,,{24}5b,4,3,2h[8:1],,,{16}5,4,5,2,1,2,7,,
{24}6h[4:1]/5,,,8,,,8b,1,2,3h[4:1],,,5,,,5b,6,7,8h[8:1],,,2,,,
{16}3,4,3,4,1,6,1,6,8,7,8,7,1,,3/4,,
{16}6h[4:1]/5,,8,,{24}8b,1,2,3h[8:1],,,{16}7,5,7,3,4,2,8,,
{16}2h[4:1]/1,,4,,{24}4b,5,6,7h[8:1],,,{16}4,5,4,7,1,7,5,,
{24}3h[4:1]/4,,,1,,,1b,8,7,6h[4:1],,,4,,,4b,3,2,1h[8:1],,,7,,,
{16}8hb[8:1]/6h[8:1],,,4hb[8:1]/5h[8:1],,,1/3b,,2b-6b[8:1],,,,2b/6b,,,,
{16}3-8[8:1]/5,,8,,{24}8b,7,6,5,,,{16}2,4,3,6,5,7,1,,
{16}7-4[8:1]/8,,4,,{24}4b,3,2,1,,,{16}6,4,5,8,7,1,6,,
{24}5-1[8:1]/4x,,,1x,,,1bx,2,3,4-8[8:1],,,8x,,,8xb,7,6,5h[8:1],,,1,,,
{16}2,6,5,7,1,6,5,7,8,6,5,7,1,,2/8,,
{16}6^1[8:1]/4,,1,,{24}1b,2,3,4,,,{16}7,5,6,3,4,2,8,,
{16}2^5[8:1]/1,,5,,{24}5b,6,7,8,,,{16}4,6,5,8,1,7,2,,
{24}8x,1,2,7,6,5,1x,2,3,7,6,5,{32}2bx-6b[8:1],3,4,5,6,7,8,1,,,,,,,,,
{16}7bhx[8:1]/A4/D4/E4,,,7bh[8:1]/D1/A1/D2,,,7bh[8:1]/A5/D5/A4,,Cf,,,,,,,,
{1}2hx[2:3]/6hx[1:1],
{16},,,,,,,,E7f/B7/B6,,,,4,5,4,5,
{8}3-8[8:1]/6-2[8:1],,3/6,,1-5[8:1],1,5,7-4[8:1],
{8}7,4,3-8[8:1],3,8,6^1^4[32:9],1,4,
{8}5-2[8:1]*-8[8:1],,5,,{16}3/7,,4,5,3,,6,5,
{16}7,,3,4,2,,7,8,6,,2,1,3,8,4,7,
{16}5-1[8:1]*-2[8:1]/6,,,,5,,,,{8}4-8[8:1],4,8,7^4[8:1],
{8}7,4,2-6[8:1],2,6,8^5^2[32:9],5,8,
{8}1h[4:1],,{16}8x,7,6,5,4/1,2,3,4,5-1[8:1]/1,8,7,6,
{16}5x,,,,1x,2,3,4,5/8,7,6,5,4-8[8:1]/8,1,2,3,
{8}4x^7[8:1]*^1[8:1],,4,,8-4[8:1],8,4,2-5[8:1],
{8}2,5,6v1[8:1],6,1,3^8^5[32:9],8,5,
{8}4w8[8:1],,4,,{16}6/2,,5,4,6,,4,5,
{16}3,,6,5,7,,2,1,3,,7,8,6,1,5,2,
{8}3-7[8:1]/4-8[8:1],,3/4,,{8}5-1[8:1],5,1,2^5[8:1],
{8}2,5,7-3[8:1],7,3,1,2-5[8:1]/8-5[8:1],,
{8}2b/8b,,{16}4/6,3,2,1,8/5,6,7,8,1/4-8[8:1],3,2,1,
{16}4x/8,,,,5/3,6,7,8,1/4,3,2,1,{32}7bx,6,5,4,3,2,1,8,
{16}7h[4:1],,,,{32}E3,B3,B4,E5,,,,,{16}7x/5x,,,6/4,,,3/5,,
{16}2h[4:1],,,,{32}E7,B6,B5,E5,,,,,{16}6/4,,,5/3,,,2/4,,
{16}3/1h[4:3],,,,{32}E4,B4,B5,E6,,,,,,,,,E7,B6,B5,E5,,,,,3x/5x,,,,
{8}5h[4:1]/3,,4p6q4[2:1],,6b,,,,
{16}7h[4:1],,,,{24}8bx,1x,2x,3x,,,{16}5/6,,,4/5,,,3/4,,
{16}2h[4:1]/3,,,,{24}1bx,8x,7x,6x,,,{16}2hb[8:1],,4hb[8:1],,5hb[8:1],,7hb[8:1],,
{24}4h[4:1],,,2,,,2bx,1x,8x,7xh[4:1],,,6,,,6bx,5x,4x,3x,,,1/8,,,
{16}2bhx[8:1]/A4/D4/E4,,,2bh[8:1]/D1/A8/D8,,,2bh[8:1]/A4/D5/A5
,,7b-3b[8:1],,,,Cf,,,,
{16}2^5[8:1]/8,,5,,{24}6b,7,8,1h[8:1],,,{16}3,4,2,6,5,7,1x/8x,,
{16}7v4[8:1]/5,,4,,{24}3b,2,1,8h[8:1],,,{16}6,5,8,2,4,3,1x/7x,,
{24}4^1[8:1],,,8,,,8b,7,6,5^8[8:1],,,1,,,1b,2,3,4,,,2/6,,,
{16}4,6,5,7,3,5,4,6,2,4,3,5,1,,2/8,,
{16}7^4[8:1]/1,,4,,{24}3b,2,1,8h[8:1],,,{16}6,5,7,3,4,2,8x/1x,,
{16}2v5[8:1]/4,,5,,{24}6b,7,8,1h[8:1],,,{16}3,4,1,7,5,6,8x/2x,,
{24}4x,3,2,5,6,7,3,2,1,5,6,7,{32}2x-6b[8:1],1,8,7,6,5,4,3,,,,,,,,,
{16}7bhx[8:1]/A4/D4/E4,,,7bh[8:1]/D1/A1/D2,,,7bh[8:1]/E6/B5/B6,,4bw8b[8:1],,,,,,,,
{16}2h[8:1]/4,,5,3h[8:1],,6>1[16:5],4h[8:1],,7xh[4:1],,,,,,,,
{16}6h[8:1]/8,,5,7h[8:1],,4V62[4:1],6h[8:1],,3xh[4:1],,,,,,,,
{16}2h[8:1]/4,,5,3h[8:1],,6qq1[32:11],4h[8:1],,7xh[4:1],,,,,,,,
{16}8-4[8:1],,,1b-3b[16:1]/7x,,,1b,,6hx[4:1],,,,{24}4x,5x,4x,5x,,,
{16}3hb[8:1]/6,,7,4hb[8:1],,8V64[4:1],5hb[8:1],,1hx[4:1],,,,,,,,
{16}8hb[8:1]/5,,4,7hb[8:1],,3<8[4:1],6hb[8:1],,2hx[4:1],,,,,,,,
{16}3hb[8:1]/6,,7,4hb[8:1],,8,5hb[8:1],,{24}1bx,2,3,4,5,6,7qq4b[4:3],,,,,,
{1}3bqq8[2:1],
{1}2-6V41[1:1],
{4}8h[4:3],,E2,C,
{1}6>1[1:1],
{8}7h[8:5],,,,,E6,,,
{1}3>5[1:1],
{4}8h[4:3],,E7,E5,
{1}5-7v4[16:9]/3-1v4[16:9],
{1}5v8[16:9]*v2[16:9],
{1}7-4V61[1:1],
{4}2h[4:3],,E1,C,
{1}4qq5<2[2:3],
{1}C,
{1}1-4[1:2],
{4},,E7,E6,
{1}5-8[1:2],
{1}E4,
E
