&title=GOODFORTUNE
&artist=EBIMAYO
&first=0
&des=シェフイです~
&lv_5=13+
&inote_5=(170)
{1},
{2}
1>4[4:1],5<8[4:1],2>5[4:1],6<1[4:1],4q1[4:1],5p8[4:1],2>6[4:1],8-4[4:1],
{4}
2v5[4:1],1,1v6[4:1],2,3v6[4:1],2,2v7[4:1],3,2-6[8:1],2,8-4[8:1],8,
{4}
1-5[8:1],7-4[8:1],2-5[8:1],8b,
{16}
47,,6,5,6,,4,,8h[4:1],,,,3,7,2,6,1h[8:1],,5,2,6,,3h[8:1],,8,2,8,2,7,3,7,,
{16}
5h[8:1],,1,6,1,,7h[8:1],,2,6,2,6,3,5,3,,
{16}
6h[4:1],,,,1h[4:1],,,,7,,26,,37,,8b,,
{16}
2h[8:1],,7,1,7,,6,,5h[4:1],,,,2,5,3,6,4h[8:1],,7,3,5,,1,,6,2,6,2,7,3,7,,
{16}
2h[8:1],,8,2,8,,6,,3,7,3,6,1,5,2,7,1b-5[8:1],,,,1b<6[8:1]*>4[8:1],,,,1bw5[8:1],,,,1b,,,,
{8}
3h[1:1],,,,,,,4,4h[1:1],,,,,,,5,5h[1:1],,,,,,,6,6h[8:3],,,4h[8:3],,,
{16}
8,7,6,5,4h[1:1],,,,
{8}
,5,5,,,3,3h[1:1],,,6,6,,5,5,5h[1:1],,,,1,,1,,
{8}
1-5[8:1],,1w5[8:1],,1,,,,
{16}
57,,6,,53,,4,,2,4,,3,5,,4,,74,,6,,35,,24,,1,5,,2,6,,3,,
{16}
84,,2,,61,,7,,8,2,,6,1,,5,,7h[8:3],,,,2,,3h[2:1],,,,8,,8,7,6,5,
{16}
24,,5,,36,,7,,2>4[8:1],8,,7,2,,6,,15,,2,,36,,4,,5-2[8:1],7,,8,5,,1,,
{16}
37,,37,,48,,48,,1,5,8,4,7,3,6,2,5-1[8:1],,,,5w1[8:1],,,,5,,,,3b/7b,,,,
{16}
6-8[8:1],,6,,2-5[8:1],,2,,1-6[8:1],,1,,1,,2,,
{16}
1>3[8:1]/5,,6,,1-4[8:1],,7,,1-5[8:1],,8,8,1,,7,,
{16}
6-1[8:1],,3,,2-5[8:1],,2,,8-5[8:1],,1,,8,,3,,
{16}
2>4[8:1],,7,7,2-5[8:1],,6,,2-6[8:1],,7,,2,,8,,
{8}
15,8,7,6,25,3,4,5,48,7,6,5,14,25,36,,
{8}
28,7,16,2,37,6,25,3,46,5,35,4,4-8[8:1]/5-1[8:1],36,4b/5b,,
{16}
7,,,,18,,2,2,7,,1,,2/8-3[8:1],,1,,6/8-5[8:1],,7,,8/2-6[8:1],,2,,1-5[8:1],,1,,2,,2,,
{16}
3,,2,,17,,8,8,2,,8,,37,,2,,15,,2,,3-7[8:1]/7-3[8:1],,,,3b/7b,,,,1b/5b,,,,
{16}
2,,,,81,,7,7,2,,8,,7/1-6[8:1],,8,,3/1-4[8:1],,2,,1/7-3[8:1],,7,,8-4[8:1],,8,,7,,7,,
{16}
7,,6,,5,,14,,2,,3,,46,,35,,
{16}
6,4,5,4,7,4,5,4,8-4[8:1],3,5,3,8b,,,,
{16}
2,,,,35,,2,,15,,7,,38,,2,,17,,2,2,8,,7,7,2-6[8:1],,1-5[8:1],,2,,1,,
{16}
4,,2,,7,,1,1,6,,3,3,8,,27,,35,,26,,17,,8,,27,,16,,26,,,,
{16}
7,,,,64,,7,,84,,2,,61,,7,,82,,7,7,1,,2,2,7-3[8:1],,8-4[8:1],,7,,8,,
{8}
5,6,7,38,2,1,58,6,
{16}
7b,5,6,5,7b,4,5,4,6b,4,5,4,5b,,,,
{8}
6h[4:3]/2q4[2:1],,,,,,,7,7h[4:3]/3pp8[2:1],,,,,,,6,5h[4:3]/1qq4[2:1],,,,,,,6,
{8}
7-4[8:1],,,2-5[8:1],,,
{16}
1,8,7,6,5h[4:3]/3qq8[2:1],,,,,,,,,,,,,,
{8}
6,6h[4:3]/1q3[2:1],,,,,,,7,8h[4:3]/4pp7[2:1],,,,,,,6,47,,36,,25,,3b/6b,,
{16}
47,,6,,5,,2,,5,1,,2,6,,3,,48,,7,,6,,2,,7,3,,2,6,,1,,
{16}
25,,3,,47,,6,,5,3,,6,4,,7,,2h[4:1],,6,,6,,7h[4:1],,3,,3,,1,2,3,4,
{8}
58,5,46,6,27,2,18,1,18,18,27,27,36,36,45,45,
{16}
4,5,3,6,2,7,1,8,1,8,2,7,3,6,4,5,
{32}
4,5,6,7,8,1,2,3,4,5,6,7,8,1,2,3,
{4}
4w8[8:1],4b,
{16}
16,,7,8,7-4[8:1],8,7,,7/1-5[8:1],,2,,81,,7,,38,,2,1,2-5[8:1],1,2,,2/8-4[8:1],,7,,18,,2,,
{16}
35,,2,4,3,4,2,,3-8[8:1]/5,,7-4[8:1]/1,,3,,7,,1,,2,6,3,7,4,,
{24}
8,7,6,4,3,2,7,6,5,3,2,1,
{16}
7,,1,8,2,8,1,,2/7-4[8:1],,8,,2-5[8:1]/7,,1,,
{16}
2,,8,7,6,,3,,1-5[8:1],,2-4[8:1],,1,,2,,
{16}
8b,,7,5,6,5,7,,3b/6b,,3,5,4,5,3,,2b/6b,,8,1,7,1,8,,
{32}
1h[8:1]/8b,7,6,5,4,,,,8h[8:1]/1b,2,3,4,5,,,,
{16}
26,,8,1,7<4[8:1],1,8,,7/1-5[8:1],,2,,18,,7,,
{16}
73,,1,8,2>5[8:1],8,1,,2/8-4[8:1],,7,,81,,2,,
{16}
25,,3,6,4,7,5,,6-1[8:1],,2-5[8:1]/8,,46,,2,,
{16}
7,,4,6,5,,8,,7,5,6,4,5,3,4,2,
{16}
5,3,5,3,6,4,6,4,7-4[8:1],,8,,71,,2,,
{16}
2,4,3,5,4,6,5,7,4-2[8:1],,3,,45,,7,,
{32}
1h[8:1]/8b,7,6,5,4,,,,8h[8:1]/1b,2,3,4,5,,,,8h[8:1]/7b,6,5,4,3,,,,1h[8:1]/2b,3,4,5,6,,,,1b,2,3,4,5,6,7,8,1b,2,3,4,5,6,7,8,
{4}
1b,,8<2[2:1]/2-6[2:1],,,,2>6[2:1]/6<2[2:1],,,,2<6[2:1]/6>2[2:1],,,,
{16}
27,,,17,,,18,,
{24}
27,,,18,27,36,4-8[8:1]/5-1[8:1],,,36,,,4b/5b,,,,,,,,,,,,,,,,,,,,,,,,
E
