&title=Beat Eater
&artist=ポリスピカデリー; Vivid BAD SQUAD; 鏡音レン
&first=0
&des=B(@A@)D
&clock_count=4
&lv_5=13
&inote_5=(137){1},
{4},,4-1[6:1]/5-8[6:1],,
{12}3h[6:1],,4,2<7[4:1]/5,,,6,,6,,6,,
6h[6:1],,5,7>2[4:1]/4,,,3,,3,,3,4,
5/2h[6:1],,1,8/3<6[4:1],,,7,,7,,7,,
5/6<1[8:1],,5/6h[6:1],,,,2-5[8:1]/7-4[8:1],,,2b/7b,,,
3/6,1,7-3[8:1],5h[6:1],,7,2,2,6-3[8:1],4,8h[6:1],,
,2,4>1[8:1],5h[6:1],,,,8>3[12:1],7,6h[6:1],,,
4,8,2-6[8:1],4h[6:1],,2,5,5,3,7-2[8:1],1h[6:1],,
7-4[8:1],3,3,7,,,1/5,2,3,4/8-4[12:1],7,6,
{12}5>2[8:1]/8b,,,6,,,7<4[8:1],,8,8,,,
1<6[8:1],,,2,,,3>8[8:1],,4,4,,,
5<8[8:1],,,4,,3,2/1-5[8:1],,8,1,,7,
4,5,3,5,4,6,2<7[8:1],,7<4[8:1],,,,
8-3[8:1],,,7,,,6-1[8:1],,5,5,,,
4-7[8:1],,,3,,,2-5[8:1],,1,1,,,
8<5[8:1],,,8/4-8[8:1],,3,4/2<7[8:1],,,2/6,,,
8-3[8:1]/5-8[8:1],,8/5,,,,8/4,7,6,5/1,2,3,
4/5-1[8:1],,,7>2[8:1],7,,3-8[8:1],,6,6<1[8:1],,,
2,3,4,5h[4:1],,4-7[8:1],4-1[8:1],,,,,,
8-5[8:1],,,8/4,3,2,1-5[8:1],,5<8[8:1],,8-4[8:1],,
4>1[8:1],,1,,,,7-4[8:1],,3-8[8:1],7,,3,
5-2[8:1],,,4-7[8:1],4,,6-1[8:1],,8,8-3[8:1],,,
7,6,5,4h[4:1],,5>2[8:1],5<8[8:1],,,,,,
1-5[8:1],,,5/1,6,7,8>3[8:1],,3<6[8:1],,6<1[8:1],,
1-5[8:1],,2h[4:1],,,,4,4,4,4/8,4<7[4:3]/8>3[4:3],4/8,
{1},
{12}8h[1:1],,,6,5,4,3,,7,7,,2,
{4}2-6[8:1],5<8[12:5],,,
{12}2h[1:1],,,4,5,6,7,,1,1,,3,
{4}3<6[8:1],3/7-3[12:5],1,5,
{12}7h[1:1],,,8,1,2,3,,5,5,,4,
4-8[12:1],,4,5-1[12:1],,5,3-8[12:1],,3,6-1[12:1],,6,
{24}2,,2,,2,,1/2,,1/2,,1/2,,3/8,7,6,5,4,3,1,8,7,6,5,4,
{12}8-4[8:1],,1<6[8:1],8,,1,5h[4:1],,4,3-7[8:1],,3,
5-1[8:1],,1,1<6[4:1],,6,6>3[4:1],,3,3,,,
1-5[8:1],,8-3[8:1],1,,8,2h[4:1],,5,6-2[8:1],,6,
4-8[8:1],,8,8<5[4:1],,5,5-1[6:1],,1,1,,,
8>3[8:1],8,3-6[8:1],8,,1,1-5[8:1],,5-2[8:1],1,,6,
7-3[8:1],7,3>8[4:1],7,,8<5[4:1],,,,,,,
1-4[8:1],1,4<7[8:1],1,,8,8-4[8:1],,4-1[8:1],8,,3,
2-6[8:1],2,6<1[4:1],2,,1>4[4:1],,,5h[4:1],,,,
6-1[8:1],,2-6[8:1],6,,2,7h[4:1],,5,5>2[4:1],,2,
2<7[4:1],,7,7<4[4:1],,4,4>1[4:1],,1,1,,,
8-3[8:1],,,5/8,6,7,8-4[8:1],,,8/4,3,2,
1,1,1,1/5,1/5,1/5,1-6[6:1]/5-2[6:1],,,,,,
{1}1h[12:13],
{12},7-3[8:1],,7h[6:1],,,,2-6[8:1],,2h[6:1],,,
1b,,,2,4,3,8h[6:1],,5,5,6,4,
7>2[8:1],,3<6[8:1],,,,8-4[8:1],,4<7[8:1],8,,3,
2h[6:1],,,6,5,7,1-5[8:1],,1h[6:1],,,2,
3>8[8:1],,7<4[8:1],,,,1>4[8:1],,4-8[8:1],1,,7,
7h[6:1],,,1-5[8:1],8,2,1,,3,3,4,2,
8>3[8:1],,3-6[8:1],,,,1-5[8:1],,5-1[8:1],1,,6,
7h[4:1],,,2<7[8:1],8<5[8:1],6>3[8:1],4>1[8:1],,,,,8,
8<5[8:1],,4>1[8:1],,,,5,6,7,8/4-7[12:1],3,2,
{1}1b/4b,,
E
