&title=Romeo
&artist=PinkPantheress
&first=0
&des=KasumCiella
&lv_5=13
&inote_5=(157.1)
{1},
{8}5h[4:15],,,B5,B6,,,,,,,B3,E3,,,,,,,B5,B6,,,,,,,B3,E3,,1x-5[8:1],,
6b^1[8:1],,4,3-5[8:1],,8,7h[4:1],,5h[4:3],,6,6,,8,8-4[8:1],,3^8[8:1],,5,6-4[8:1],,1,2h[4:1],,4h[8:3],,2,2,5,3,7h[8:1],5V38[4:1],
,6,6,,7/8x,1,2h[4:1]/5,,4h[4:1],,3,2,4,5,6,4z8[4:1],8,8,,7,7h[4:1],,1,2-6[8:1]/6,,8-3[8:1],,5w1[8:1],,,,,
47,,13,2-5[8:1],,28,1V37[4:1],,4,4,5,5,6,6,8,15,24,15,8,7-4[8:1],,71,8V62[4:1],,5,5,4,4,3,3,1,48,
5/7-3[8:1],48,3,2-5[8:1],,28,1V37[4:1],,4,4,5,5,6,6,8,15,24,15,8,7,6,45,3,2,1/8-2-7-3-6-4[4:3],7,6,5,,,,,
Ch[4:3],,,,,1b,1b,,{16}26,,3,4,,6,5,,7,8,,2,{8}1^6[16:5],,Ch[4:3],,,,7,8,1-5[8:1],,1/2^7-3^6[8:5],,,,,,7,,
Ch[4:3],,,,,2b,2b,8x-5[16:5]*z4[16:5],,,,,,36,36,45,3,12,3,45,6,7/8q1[8:3],1,2>7[8:3],,,,,8-3[8:1]*-4[8:1],,8b<1[8:3]*>7[8:3],,
A8f,,,,1x/7x,6,45,3,2/8^5[8:1],1,2,3,4^1[8:1],5,6,7,8-3[8:1],3-8[8:1],8xb,,1x,2x/8x,3h[8:1]/7h[8:1],,2^5[8:1],5,2,7p3[8:1],1,7,8-3[8:1],4-7[8:1],
8,4,,1,2h[4:1]/6h[4:1],,,7-4[8:1],8,1-5[8:1],2,5,6<4[2:1],,6h[4:1],,,,5,4,6<4[2:1],,6h[8:1],,5,5,6,7,1-5[8:1]*-6[8:1]/8,,1b<2[8:3],,
4,,A3/B3/D3/D4f,,8,1,28,7,5^8[8:1]/6,4,3,2,1^4[8:1],8,7,6,5-8[8:1],5-2[8:1],,,8x,1x/7x,2h[8:1]/6h[8:1],,7^4[8:1],4,7,2q6[8:1],8,2,1-6[8:1],5-2[8:1],
1,5,,8,3h[4:1]/7h[4:1],,,2-6[8:1],1,8-3[8:1],7,4,5<3[2:1],,5h[4:1],,,,4,3,5<3[2:1],,5h[4:1],,,,4w8[4:1],4,{4},,
2b/6,6/E1,26,6/E2,26,6/E3,26,6/E4,37,3/E5,37,3/E6,37,3/E7,37,3/E8,
2h[8:1]/8,{8}2h[8:1],1qq7[4:1],{4}2h[8:1],2h[8:1],3h[8:1]/8,{8}3h[8:1],1qq7[4:1],{4}3h[8:1],3h[8:1],4h[8:1]/8,{8}4h[8:1],1qq7[4:1],{4}4h[8:1],4h[8:1],5h[8:1]/8,{8}5h[8:1],1qq7[4:1],{4}5h[8:1],5h[8:1],
58,{12}5,7,5,7h[6:1],,4,6,4,6,4h[6:1],,5,3,5,3,5h[6:1],,2,4,2,4,2,5,5,3,3,6,4h[6:1],,7,5,7,5,7,4,4,6,6,3,{8}5h[4:1],,1x,,
2-4[8:1],2,1-5[8:1],1,8-4[8:1],8,7-5[8:1],7,3-1[8:1],3,4-8[8:1],4,5-1[8:1],5,6-8[8:1],6,2>6[4:1],2,6<2[4:1],,2,,7,6,{16}3,5,3,5,2,6,2,6,{24}1x,2x,3x,7x,6x,5x,{8}8b-3-1[16:3]*q4^1[16:3],,
8b,,,7x/8x,6h[4:1],7,8h[4:1],7,6^3[8:1],7,8,1^6[8:1],2,3,4,5,6-1[8:1],1-6[8:1],6xb,,8x,1x/7x,2h[8:1]/6h[8:1],,7v4[8:1],1,7,3-8[8:1],5,3,4^7[8:1],7^2[8:1],
4,E5f,,1x,3x/7x,1x,3x/7x,8-6[12:1],1-5[8:1],8-4[8:1],1-3[12:1],8,1<5[4:1],,5<1[4:1],,4h[8:1],,4x,5x,1x<5[4:1],,5<1[4:1],,4h[8:1],,4x,2x/6x,{24}8x,7x,6x,2x,3x,4x,{8}1b-6-8[16:3]*p5^8[16:3],,
1b,,A1/A8/D1/E1f,,2x,3xh[4:1],2,1h[8:1],3^6[8:1],2,1,8^3[8:1],7,6,5,4,3-8[8:1],8-3[8:1],3xb,,1x,2x/8x,3h[8:1]/7h[8:1],,2v5[8:1],8,2,6-1[8:1],4,6,5^2[8:1],2^7[8:1],
5,E5f,,8x,6x/2x,8x,6x/2x,1-3[12:1],8-4[8:1],1-5[8:1],8-6[12:1],1,8>4[4:1],,4>8[4:1],,5h[8:1],,5x,4x,8x>4[4:1],,4>8[4:1],,5h[8:1],,5x,7x/3x,{16}2,7,1,8,2-6[8:1],7,1,8,
{8}2b`Cf,,1xb/8xb,,3h[4:1],1,5h[4:1],1,4h[4:1],8,6h[4:1],8,5,7,2,4,35,6,78,1,26,3,45,6,1-6[8:1]/7,1,8-3[8:1],8,2-5[8:1],2,7-4[8:1],7,
8,8h[8:1],1,1h[8:1],2,2h[8:1],3,3h[8:1],4,4h[8:1],5,5h[8:1],6-2[8:1],,67,,18,7,18,2h[8:1],3-7[8:1],,2h[4:1]/3,,{16}1,2,8,3,7,4,6,5,7,8,6,1,5,2,4,3,
{8}5b,5/6-8[12:1],7,5-1[8:1]/6,4,5/6-2[8:1],7,5-3[12:1]/6,4,1-7[12:1]/5,8,1/2-6[8:1],3,1-5[8:1]/2,8,12,
3,4/3-1[12:1],2,4-8[8:1]/3,5,4/3-7[8:1],2,4-6[12:1]/3,5,8-2[12:1]/4,1,8/7-3[8:1],6,8-4[8:1]/7,1,8/6<4[4:1],
5,6x/Cf,,1x,2x/8x,37,4/6h[8:1],5x-8[8:1]b,8xz4[4:1]b,5x,7x,6x,7x<3[8:1]b,3x>7[8:1]b,7x,,5x-7[8:1]b,7x-4-1[4:1]b,8x,1x-3[8:1]b,8x,7x,6x-2[8:1]b,2x<4[16:5]b,6x,,,,{32}1x,8x,7x,6x,5x,4x,3x,2x,{4}1bh[4:1]/Ch[4:1],B1f/E1/E2,
