&title=魔法みたいなミュージック!(full size)
&artist=OSTER project
&first=0.02
&des=Zeroflies
&lv_5=13
&inote_5=(210){4},,,,B8/E8/B7,
B1/E2/B2,{6}B6/E6/B5,B3/B4/E4,{12},5h[4:1],
,,,4,,5<1[2:1],,,,,,,,,,,,2,
{4}1h[4:1],2<5[4:3],
{12},,,,,,,,,,,6,
6p3[4:5],,,,,6h[3:1],,,,,,,{4}6-3[4:1],
,,8<1b[4:15],
8,1-3[6:1],1,1-5[6:1],
1,8-4[6:1],8,8-6[6:1],
{2}8,B5/B4,
8h[4:1],8h[6:1],
{4}8b/1b,{12}2,,8bx/3bx,,,,,,,{4}8b/3b,
{12}7,,6bx/3bx,,,,,3,2,
{4}1h[4:1],8h[4:1],{6}2,7,,{1}3qq5[2:1]/6pp4[2:1],
{4}6h[3:2],4,{12},,4,6,,2,
{4}6h[3:2],7,{12},,5,6,,3,
{4}4h[4:3],5,{12},,,6,4,,{4}4h[4:3],
2,7,5>8[2:1],
{2}5/7h[4:1],{6}5,{12}1,4<1[2:1],,,{2}4/2h[4:1],
{4}3h[2:1],2,
5h[4:1],6h[4:1],7h[4:1],8h[4:1],
6xqq5[4:1],5x-8[4:1],,,1h[3:2],
B7/E7/B6,{12},,5,1,,7,
{4}1h[3:2],B2/B3/E3,{12},,6,1,,4,
{4}3h[3:2],B1/E1/B8,{12},,7,3,,,{4}3h[4:3],
B3/E3/B2,B5/B4/E5,B7/E7/B6,
{2}E1/B8/B1,{6}1-5[6:1],5qq3[4:1]*pp7[4:1],{12},,,,,,,7,
{4}5h[2:1],7,
4h[4:1],3h[4:1],2h[4:1],1h[4:1],
{2}Ch[2:1],B7/B2,
{4}6b/2b,6v1[6:1]/2v5[6:1],{2}6/2,
{4}1b/5b,5p8[6:1]/1p4[6:1],{2}1/5,
{4}1h[2:1],6,7,1pp8[4:3]/8qq1[4:3],
,,,,1b/8b,
8-4[6:1],{2}8/7,
{4}3b/4b,4-8[8:1],{12}5/4,,,,,7,
{4}8,8q1[4:3],{6}8,6,,{1}1x<5[2:1]*>5[2:1],
{4},3h[4:1],4h[4:1],5h[4:1],
6h[2:1],7h[12:5],{12},,,,,8/7,
,,,,,7,{6}8,{12}6,5,,,{4}6,
5b,4b,3b,
{2}2b,{4}5<8[4:1],8>3[4:1],
3<6[4:1],6<1[4:1],1>4[4:1],4<8[4:1],
8>4[4:1],4V68[4:1],8V24[4:1],4>7[3:1],
{12},,,,,5bw1[1:1],,,,,,,,,,,,,,,,,,,{4}1,
1,{6}7,{12}8,2,,1,
,,,{4}8pp1[4:1],{2}1<3[3:1],
1,{4}2h[4:1],3h[4:1],
4h[4:1],5h[4:1],{2}6h[4:1],
{4}5/7-5[6:1],7,4/8-4[6:1],8,
6/8-6[6:1],8,5/1-5[6:1],{12}1,,6,
{4}6h[4:3],2,3,2,
{6}2h[4:1],{12}8,8-4[6:1],,,{6}8,1h[6:1],{12},,{4}1,
1,{6}8,{12}1,8,,1qq8[3:1],
,,,{4}8>6[3:1],{12},,,,,,A1/A5,
,,,,B7/B6/B2/B3,,,,{4}E2/B1/A1/A5/B5/E6,
1/5,8>1pp3[3:1]/4<5pp7[3:1],,,4/2-4[6:1],
2,5/1-5[6:1],1,
4/8-4[6:1],8,5/7-5[6:1],{12}7,,3,
{4}3h[4:1],4h[4:1],5h[4:1],{12}6h[4:5],,7,
,,,{4}B7/A7,B8/A8,B1/A1,
B2/A2,,,6<8[4:1],
8p4[4:1],4>2[4:1],{2}2q6[4:1],
1h[1:1],8h[2:1],
{48}E8/E2,B7/B2/Cf,B6/B3,E6/E4,{4},,{16},,{24},{4}7-4[6:1],
7/1,E1,C,7,
2-5[6:1],2/8,E1,C,
{1}2h[6:7],
{12},,,1,2,8,{2}3h[4:1],
{4},B6/B5/B3/B4/B7/E7/E3/B2,{12}4h[4:1]/1h[4:1],,,,,5/2,
,6,7,8,1,2,{6}3b,{12}1x,3x,,1x,
E4,B4,B5,B6,B7,E8,,,1,,,5,
,,1,4,,8,,,1,5,,,{4}5/1,
2/6,3/7,4/8,
5bx/1bxp3[3:1],{12},,,,,,1,8,7,
{4}6-3[6:1],7x,{12},,{3}7h[3:1],
{4}3,6/3,5,5,
{12}5x,6x,7x,8x,1x,2x,3x,4x,{3}5xw1[4:1],
{12},,,,,,,,4,5,{6}4,
{4}6/3,{12}4,,8-4[3:1],,,4,,,Cfh[12:7],
,,,,,,,,,,,,{6}5h[6:1],
{12}4,6,,,{6}4h[6:1],{12}6,3,,,{6}7h[6:1],
{12}2,8,,1-5[4:1],{6}8h[6:1],1b,,{2}6h[1:1],
5,
{6}4,{12}4,6,,,{2}4h[2:1],
{6}3,{12}3>8[3:1],4,,4,,,,,,,{2}7h/3h,
2h/6h,
1/5-1q6[1:1],B3/E3/B2,
3h[2:1],{4}7h[2:1],8-6<7-4-1[1:1],
{12},,,,,,,,,,,,{6}E6,
E7,{12},E2/B2/B1,,,{3}B7/E8/B8,
{4}6h[4:1],1,{6}5h[4:1],{12},,5,4xh,
3xh,2xh,1xh,8xh,7xh,6xh,5xh,4xh,3xh,2xh,1xh,8xh,
7xh[6:1],,,,,7,{8}1h[4:1],{24},,,,,,6,5,4h[12:5],
,,,,,,,,,,5,6,{4}7h[4:1],3>8[4:1],
7,7<4[4:1],8,8h[4:1],
{12},,{6}5,{12},5,{4}1,5h/1h,
{2}6h[4:1]/2h[4:1],7h[4:1]/3h[4:1],
{4}8/4,4p8[4:1]/8p4[4:1],{2}4/8,
{4}8b/6h[2:1],1b,{2}2b,
{4}7b/3h[4:3],8b,{2}1b,
{4},4-7[4:1],{2}7V14[2:1],
{1}4pp7[2:1]*qq1[2:1],
{4}8b/3h[2:1],7b,{2}6b,
{4}3b/6h[4:3],2b,{12}1b,,,,,8,
{4}8,7,{2}6h[4:1],
{4}5-8[2:1],{12}5,,4h[3:1],,,,,,,{4}8h[4:1],
2h[4:1],4h[4:1],{12}6,,5h[12:7],
,,,{4}8,{6}1,5,{12},3,
,,,,,8,{6}3,{12}8,4,,8,
{6}5,{12}8,4,,,{4}3/8,8z4[3:1],
{2}1b/8,{4}1>4[4:1],4<7[4:1],
7>2[4:1],2>5[4:1],5<8[4:1],8>4[4:1],
4<8[4:1],8V24[4:1],4V68[4:1],8<3[3:1],
{12}5h[4:1],,,,,1bw5[1:1],,,,,,,,,,,,,,,,,,,{4}1/7h[1:1],
3,{6}3>1[4:1],{12}4,3,,,,,,8-4[6:1],
7,,{4}8-6[4:1],{12}8,,5h[3:1],
,,,,,,{4}7h[4:1],4h[4:1],
1h[4:1],4h[4:1],5h[4:1],8h[4:1],
7v4[6:1],7x/B1/E2/B2,1-4[6:1],1x/B7/E7/B6,
8-5[6:1],8x/B2/E3/B3,2v5[6:1],2x/B8/E8/B7,
8h[4:1],7h[4:1],6h[4:1],5h[4:1],
4-1[12:7],4,{6}5,4h[3:1],{12},,{4}8h[4:3],
4,{6}4>2[4:1],{12}5,4,,,{4}8,
1-5[6:1],1-7[4:1],1,
{12}3h[12:5],,,,,6h[3:1],,,,{4}4,
{1}6-1-7[2:1]/4-1-3[2:1],
{4}6/2,6q3[3:1]/2q7[3:1],,,6/2,
6v3[3:1]/2v7[3:1],,,6h[4:1],
Ch[2:1],{12},,,6,,6h[3:1],
,,,{4}7h[4:1],8h[4:1],1h[4:1],
Ch[2:1],{12},,,,,,1,,1,
{4}7h[4:1],5h[4:1],8,5,
5/7,7,7/1,1s5[2:1],
8/1b,,,{256}8<7<6>5>4>3>2<1<8[1:2],8?<8b[256:511],{16},,,{64},,,{128},{4}7x<8[4:7],
6x>8[2:3],5x>8[4:5],4x>8[1:1],
3x>8[4:3],2x<8[2:1],{256}1x<5[1:1]*<1b[1:2],1?<1<5[128:383],{16},,,{64},,,{128},{4}Cfh[4:1],
,,,,,,,,,,,,4<7[4:1],
{12}4,,8p4[4:1],,,{3}8,
{12},,4,4>1[4:1],,,{2}1pp3p7<4[1:1],
{12},,,,,,,,1,1pp6[4:3],,,1,
,,,,,,,,,,5,
{6}3b,{12}4,6b,,5,{6}2b,{12}4,7b,,,{2}Cf/B7/B8/B1/B2,
{6}1-7[6:1],{12}7-5-3[4:1],1,,,,,,8,
,1,{6}8,{12}2,4,,5h[3:1],
,,,,,5,{4}7h[4:1],1,
{12}2x,1x,8x,7x,6x,5x,6x,7x,8x,1x,2x,3x,
{4}5<7q5[2:1]/4>2p4[2:1],5/4,,,6/4,
8,5/3,1,
8/1,4,5,4>1[6:1],
4b<7[6:1]*<7[6:1],4b-8b[6:1],{2}4b,
{1}8h[1:2],
4h[1:1],
{2}B8/B4,{4}B1,C,
{2}B5/B4,B6/B3,
7h[4:1],{12}E8,B8,{3}B1,
{2}1h[4:1],{4}B2,B3,
{2}4h[1:1],B6/C/B2,
8h[2:1],B3/C/B7,
{4}5,5h[4:3],,,{1}4h[1:1],
3h[4:3],
{4}6,6<2[2:1],{2}5,
{4}4-8[2:1],4,,,5-7-4-8[4:3],
5,,,{2}3h[2:1],
{12}6h[4:1],,,,,6b/Cf,
,,,{4}7,3<6[1:1],3,
7,7,7,{12}7>2[1:1],,6b,
,,,{4}6,6,6,
6,6-3[6:1]/2-7[6:1],,,{2}6h[4:1],
{6}7,{12}8,2,,1,
,,,{4}5/4,{12}6,8/7,,,,E7/B6/E1/B1/C/E8,
,,,,,,{4}1h[4:1],8,
{12}1x/8x,2x,3x,4x/8x,7x,6x,1x/5x,2x,3x,4x/8x,7x,6x,
{6}5x/1x-5[6:1],{12}6,1,,,{6}4/8-4[6:1],{12}3,8,,,{6}5/2-6[6:1],
{12}6,2,,,{6}4/7-3[6:1],{12}3,7,,,{4}4h[1:1],
B5/B4,B3/B2,B7/B6,
{6}B8/B1/E1,{12}7,5,,2,{6}4,{12}6,5,,,{4}8,
8,{6}E8/B8,{12}B1/E2,B7/B6,,B2/B3,
,,,{4}8pp2>5[2:1],{12},,,,,B8/B1/E1,
,,,,,C/B7/B2,,,,{4}B5/B4/E5,
1,2/4h[4:1],{6}3,{12}5,1,,,{4}8/6<8[6:1],
6,1/5>1[6:1],5,
8/4<8[6:1],4,1/3>1[6:1],{12}3,,7,
{2}8h[4:1],{4}8/5h[4:1],{12}7,,7h[3:1],
,,,{4}6h[4:1],5h[4:1],4,
C,{12},,,,,,1-5[6:1],,5V31[3:1]*V71[3:1],
,,,,,,,,,{4}8>8[4:3],
{2}8,8q1[2:1],
{4}C/B5/B4,,,1>3[8:1],
1/C,8<6[8:1],8/C,2>4[8:1],
2/C,7<5[8:1],7/C,3,
8/2,8-4[6:1],8/1,1-5[6:1],
7/1,7-4[6:1],7/8,{256}8-5[6:1],8?-3[0.2812##0.1905],{16},,,{64},,,{128},{4}8b,
4-7[6:1]*-1[6:1],4b,8w4b[6:1],
B8f,{12},,,,,,5,4,5,
{4}3h[6:1]/6h[12:5],B2/E3/B3,3h[12:5],B7/B6/E7,
7h[12:5],{48}B5,C,{24}B1,,,,,{4}2h[12:5],{48}B4,C,{24}B8,,,,,{4}6-1[6:1],
6xh[12:5],3-8[6:1],3xh[12:5],
7h[2:1],3,2,{12}2,,2>4-6>4-2[12:37],
,,,,,,,,,,,,,,,{4}B7/A7,
A8/B8,A1/B1,
{2}A2/B2,Ch[4:3],
{6},,,B1/E1/B8,B5/E5/B4,{12},,{4}8/1,
{12}2,,5,,,,,,,{4}8/1,
{12}7,,4,,,,6/3,,8/1,
{4}8/1,7-4[4:1]/2-5[4:1],,,{2}6h[2:1],
{6}C,6h[4:1],{12},,{4}E2/B2/B1,
B3/E4/B4,B5/E6/B6,B8/B7/E8,
1pp3[6:1],1x/8qq6[6:1],8x/2>4[6:1],2x/7<5[6:1],
{1}7x/3pp6[12:7],
7h[4:1]/6-4v5-3b[12:7],
{6}6b/3b,5/4,{12},5h[2:1]/3h[2:1],,,,,,,5b/3b,
,,,,4/6h[3:1],,,,,6x/3x,7x/2x,
{4}8x/1x,8<5pp4[4:3]/1>4qq5[4:3],{12},,,,,,,,,,,,,,,,,7b/E5,
E4,E3,{6}E2,{12},2b/E5,E6,E7,E8,,,6b/E4,
E3,E2,{6}E1,{12},3b/E6,E7,E8,{3}E1,
{12}3bp1[2:1]/6bq8[2:1],,,,,,,,,,,8h[6:1]/1h[6:1],
,,,8/1,7/2,6/3,5h[4:1]/4h[4:1],,,,,B7/E4/B4/E5/B5/E6/B6/B3/E3/E2/B1/E1/B8/E8/E7/B2/Cf,
E
