&title=Jade Star
&artist=SHIKI
&first=0
&des=Benren
&lv_4=12 | 12.5
&lv_5=13+ | 13.7
&lv_7=宴
&inote_4=(152){1},
{4}
3xh[1:1],,,,4h[1:1],,,,5h[1:1],,,,6h[1:1],,,,
2h[1:1],,,,1h[1:1],,,,8h[1:1],,,,
{16}
7h[1:1],,,,,,8,,8xh[16:1],,,1xh[16:1],,,2x,,
3xh[16:3],,,,,,3h[16:3],,,,,,6h[4:1],,,,
3h[16:3],,,,,,3h[16:3],,,,,,6h[4:1],,,,
2h[16:3],,,,,,2h[16:3],,,,,,5h[4:1],,,,
2h[16:3],,,,,,2h[16:3],,,,,,5h[4:1],,,,
4h[16:3],,,,,,4h[16:3],,,,,,7h[4:1],,,,
4h[16:3],,,,,,4h[16:3],,,,,,7h[4:1],,,,
3h[16:3],,,,,,3h[16:3],,,,,,6h[4:1],,,,
3h[16:3],,,,,,3h[8:1],,6,5,,3,4,,2h[8:1],,
6xh[16:3],,,,,,6h[16:3],,,,,,3h[4:1],,,,
6h[16:3],,,,,,6h[16:3],,,,,,3h[4:1],,,,
7h[16:3],,,,,,7h[16:3],,,,,,4h[4:1],,,,
7h[16:3],,,,,,7h[16:3],,,,,,4h[4:1],,,,
5h[16:3],,,,,,5h[16:3],,,,,,2h[4:1],,,,
5h[16:3],,,,,,5h[16:3],,,,,,2h[4:1],,,,
6h[16:3],,,,,,6h[16:3],,,,,,3h[4:1],,,,
5h[16:3],,,,,,5h[16:2],,
2x,,3,,4,,5,,
6b,,6,,5,,5,,4,,4,,3x-8[8:1],,,,
4x,,4,,5,,5,,6,,6,,7,,7,,8xh[8:8],,,,,,1x,,1x>6[4:2],,,,,,,,,,,,,,
1,,8x,,8,,7,,7h[8:1],,
5xh[16:1],,6xh[16:1],,5xh[16:1],,6xh[16:1],,
5xh[16:1],,6xh[16:1],,5xh[16:1],,6xh[16:1],,
4xh[16:1],,5xh[16:1],,4xh[16:1],,5xh[16:1],,
4xh[16:1],,5xh[16:1],,3x,,3x,,
2,,1,,8,,7x,7xh[16:3],,,8,,1,,2,,3,,4,,5,,6x,6xh[16:3],
,,4,,3,,2,,
3b,,3,,4,,4,,5,,5,,6x-1[8:1],,,,
5x,,5,,4,,4,,3,,3,,2,,2,,1xh[8:8],,,,,,8x,,8x<3[4:2],,,,,,,,,,,,,,
8,,1x,,1,,2,,2h[8:1],,
4xh[16:1],,3xh[16:1],,4xh[16:1],,3xh[16:1],,
4xh[16:1],,3xh[16:1],,4xh[16:1],,3xh[16:1],,
5xh[16:1],,4xh[16:1],,5xh[16:1],,4xh[16:1],,
5xh[16:1],,4xh[16:1],,6x,,6x,,
7,,8,,1,,2x,2xh[16:3],,,1,,8,,7,,6,,5,,4,,3x,3xh[16:9],
,,,,7-3[8:1],,,,
7x,,,,1,,,,6,,5,,7h[4:1]/4,,,,
2,,,,48,,,,3,,4,,2h[4:1]/5,,,,
6,,,,38,,,,4,,5,,3h[4:1]/6,,,,
7,,7,,8,,8,,1x,1xh[16:2],,C,,,E5,,
2x,,,,8,,,,3,,4,,2h[4:1]/5,,,,
7,,,,51,,,,6,,5,,7h[4:1]/4,,,,
3,,,,61,,,,5,,4,,6h[4:1]/3,,,,
2,,2,,1,,1,,8x,8xh[16:2],,C,,,E5,,
7bh[8:11],,,,,,E1,E2,E3,,,,,,,,,,,,,,
E4,E3,E1,B8,B7,E7,E5,B4,B3,E3,
6xh[4:4],,,,,,E3,E4,E5,,,,,,,,
4h[8:3],,,,,,7h[8:3],,,,,,2h[4:1],,,,
Ch[4:4],,,,,,,,,,,,,,,,
A2,E3,E4,A4,A8,E8,E7,A6,
E1,B1,B2,E3,E7,B6,B5,E5,
2xh[8:3],,,,,,5h[8:3],,,,,,1,,,,
38,,,26,,,45,,5h[4:2]/4,,,,,,,,
2bh[8:11],,,,,,E1,E8,E7,,,,,,,,,,,,,,
E6,E7,E1,B1,B2,E3,E5,B5,B6,E7,
3xh[4:4],,,,,,E7,E6,E5,,,,,,,,
5h[8:3],,,,,,2h[8:3],,,,,,7h[4:1],,,,
Ch[4:4],,,,,,,,,,,,,,,,
A7,E7,E6,A5,A1,E2,E3,A3,
E1,B8,B7,E7,E3,B3,B4,E5,
7xh[8:3],,,,,,4h[8:3],,,,,,8,,,,
61,,,73,,,54,,4-2[8:1]/5-1[8:1],,,,,,,,
3xbh[4:1]/8xb,,,,,,7,5,6xh[8:1],,4,5,4,5,4,5,3xh[8:3],,,,,,
5,4,6x,,6x,,5,,4,,3xh[8:3],,,,,,
5,4,6xh[8:1],,8x,7,8,7,8,7,
1xq5[8:1],,,,7,,7xp3[8:1],,,,2,,2h[4:1],,,,
5x,,3,4,2xh[8:1],,6,5,7xh[8:1],,4,5,3,5,4xh[8:1],,
6,5,7,5,6xh[8:1],,2,4,3xh[8:1],,7,5,6,5,7,4,
8x-4[8:1],,,,2,,2x-5[8:1],,,,8,,8x-5[8:1],,,,
2x,,,3x,,,4x/5x,,4x-8[8:1]/5x-7[8:1],,,,,,,,
6xbh[4:1]/1xb,,,,,,2,4,3xh[8:1],,5,4,5,4,5,4,6xh[8:3],,,,,,
4,5,3x,,3x,,4,,5,,6xh[8:3],,,,,,
4,5,3xh[8:1],,1x,2,1,2,1,2,
8xp4[8:1],,,,2,,2xq6[8:1],,,,7,,7h[4:1],,,,
4x,,6,5,7xh[8:1],,3,4,2xh[8:1],,5,4,6,4,5xh[8:1],,
3,4,2,4,3xh[8:1],,7,5,6xh[8:1],,2,4,3,4,2,5,
1x-5[8:1],,,,7,,7x-4[8:1],,,,1,,1x-4[8:1],,,,
7x,,,6x,,,5x/4x,,5x-1[8:1]/4x-8[8:1],,,,,,,,2b/7b,,,,,,,,,,,,,,,,
E
&inote_5=(152){1},
{8}
6h[4:7]/4h[16:3],,,4h[16:3],,,5,5,5h[16:3],,,5h[16:3],,,5,4,
3h[4:7]/5h[16:3],,,5h[16:3],,,4,4,4h[16:3],,,4h[16:3],,,5,6,
7h[4:7]/4h[16:3],,,4h[16:3],,,3,3,3h[16:3],,,3h[16:3],,,4,3,
2h[4:4]/5h[16:3],,,5h[16:3],,,6,6,6h[16:3],,,6,
{16}
3,4,,6,5,,47,,
2b/6b,,,5,,,4,,,3h[16:3],,,4,,4,,
3,,,4,,,5,,,6h[16:3],,,5,,5,,
7h[1280:1],,,5h[1280:1],,,4h[1280:1],,,2h[16:3],,,4,,4,,
2h[1280:1],,,4h[1280:1],,,5h[1280:1],,,7h[16:3],,,5,,5,,
7,,,8,,,1,,,2h[16:3],,,1,,1,,
2,,,1,,,8,,,7h[16:3],,,8,,8,,
6h[1280:1],,,8h[1280:1],,,1h[1280:1],,,3h[16:3],,,1,,1,,
3h[1280:1],,,1h[1280:1],,,8h[1280:1],,2,1,,7,8,,6,,
1x/5x,,2,4,,3,5,,4,6,,5,7h[8:1],,2,,
8x/4x,,7,5,,6,4,,5,3,,4,2h[8:1],,7,,
4x/8x,,3,1,,2,8,,1,7,,8,6h[8:1],,3,,
5x/1x,,6,8,,7,1,,8,2,,1,3h[8:1],,6,,
3x/7x,,5,4,6,4,5h[8:1],,3,4,,6,5,,7,,
6x/2x,,4,5,3,5,4h[8:1],,6,5,,3,4,,2,,
4x/8x,,6,5,7,5,6h[8:1],,2,1,,7,8,,6,,
5x/1x,,3,4,2,4,3h[8:1],,
6x,5,4x,3,6x,5,4x,3,
8x-4-2[4:1],7,6h[8:1],,8x,,7,,6-8[8:1],,5,,4h[4:1]/6,,,,
1x-5-3[4:1],8,7h[8:1],,1x,,8,,7,,6,,5-2[8:1],,4,,3xh[4:1],,,,,,
1x,8,7x>5[16:7]/3xh[8:6],,,,,,,,,,,,,,4,3,5h[8:1],,2h[8:1],,8h[8:1],,3h[8:1],,
1xh[1280:1],2,1,2,1,2,1,2,1xh[1280:1],2,1,2,1,2,1,2,
4xh[1280:1],3,4,3,4,3,4,3,4xh[1280:1],3,5,2,6xh[8:1],,1h[8:1],,
7x-3-1[4:1],6,5h[8:1],,7x,,6,,7x,,8,,1,,2,,
3,5,4,5,3h[8:1],,5,6,
3x,4,5x,6,3x,4,5x,6,
1x-5-7[4:1],2,3h[8:1],,1x,,2,,3-1[8:1],,4,,5h[4:1]/3,,,,
8x-4-6[4:1],1,2h[8:1],,8x,,1,,2,,3,,4-7[8:1],,5,,6xh[4:1],,,,,,
8x,1,2x<4[16:7]/6xh[8:7],,,,,,,,,,,,,,5,6,4h[8:1],,7h[8:1],,1h[8:1],,6h[8:1],,
8xh[1280:1],7,8,7,8,7,8,7,8xh[1280:1],7,8,7,8,7,8,7,
5xh[1280:1],6,5,6,5,6,5,6,5xh[1280:1],6,4,7,3xh[8:1],,8h[8:1],,
2x-6-8[4:1],3,4h[8:1],,2x,,3,,2x,,1,,8,,7,,
16,,48,,25,,46,4x/6x,,53,5x/3x,,8x-4[8:1]/4x,,7,,
6b/8b,,,,7h[8:1],,2,1,,3h[8:1]/8,,6,5,7,4,,
8,,1,,2h[8:1],,7,8,,6h[8:1]/1,,3,4,2,5,,
8,,7,,6h[8:1],,3,4,,5h[8:1]/2,,1,8,2,7,,
64,,5,,42,,3,,4x-1[12:1]/6x>4[12:1],4x/6x,,4x/6x,,,,,
1x/5x,,2,,3h[8:1]/8,,6,4,,2h[8:1]/5,,4,3,5,4,,
8,,7,,6h[8:1]/1,,3,5,,7h[8:1]/4,,5,6,4,5,,
2,,3,,4h[8:1]/7,,5,3,,6h[8:1]/2,,8,7,1,8,,
24,,3,,57,,6,,5xs1[6:1]/1x,1x/5x,,1x/5x,,,,,
3bh[8:3],,,,,,8xq3[16:9],7,6h[4:2],,,,,,,,,,,,,,
4,3,5x,4,6,5,7,5,6,4,5xh[8:3],,,,,,1xq5<8[1:1],2,3h[4:1],,,,,,,,
B1/E2,,,,,,B4/E5,,,,,,E3/A3,,,,8xV64[16:9],,,,,,,,,,,,,,,,
2x,4,3,6,4,5,4,7,5,6,3,5,4,5,3,4,
2x>5-1[16:9],,,,,,A7/E8,,,,,,B66/A6,,,,
2xh[16:3],,,5h[16:3],,,8V24-8[2:1],,8,,,,,,,,
6bh[8:3],,,,,,1xp6[16:9],2,3h[4:2],,,,,,,,,,,,,,
5,6,4x,5,3,4,2,4,3,5,4xh[8:3],,,,,,8xp4>1[1:1],7,6h[4:1],,,,,,,,
B8/E8,,,,,,B5/E5,,,,,,E7/A6,,,,1xV35[16:9],,,,,,,,,,,,,,,,
7x,5,6,3,5,4,5,2,4,3,6,4,5,4,6,5,
7x<4-8[16:9],,,,,,A2/E2,,,,,,B33/A3,,,,
7x,,5,,47,,35,35,,46,46,,1x-5[8:1]/7x,,2,,
3bh[8:3]/1b,,,,,,5,4,7x,5,6,2,4,3,6,4,8xh[8:3],,4,,5,,
6,7,4x,5,3,4,2x,1,3,8,2xh[8:3],,8,,6,,
4,3,6x,5,7,4,8x,1,7,2,
8x<5[8:1],,1,,2,,3x>8[8:1],,4,,5,,6xh[4:1],,,,
8x,7,1,6,2x,1,3,8,4x,6,1,5,3,8,2xh[8:1],,
4x,3,5,2,6x,5,7,4,1x,2,8,1,4x,3,5,4,
7x<4[8:1],,8,,1,,2x<7[8:1],,3,,4,,5xh[4:1],,,,
8,,,37,,,25,,38,38,,15,,28,,16,
1b/6bh[8:3],,2,,3,,4,5,2x,4,3,7,5,6,3,5,1xh[8:3],,5,,4,,
3,2,5x,4,6,5,7x,8,6,1,7xh[8:3],,1,,3,,
5,6,3x,4,2,5,1x,8,2,7,
1x>4[8:1],,8,,7,,6x<1[8:1],,5,,4,,3xh[4:1],,,,
1x,2,8,3,7x,8,6,1,5x,3,8,4,6,1,7xh[8:1],,
5x,6,4,7,3x,4,2,5,8x,7,1,8,5x,6,4,5,
2x>5[8:1],,1,,8,,7x>2[8:1],,6,,5,,4xh[4:1],,,,
1,,,16,,,74,,26,,{32}1x/5x,26,37,48,1x-6[8:1]/5x-2[8:1],,,,,,,,1xb/5xb,Cf,
&inote_6=
&inote_7=(152){1},
{8}
6h[4:7]/4h[16:3],,,4h[16:3],,,5,5,5h[16:3],,,5h[16:3],,,5,4,
3h[4:7]/5h[16:3],,,5h[16:3],,,4,4,4h[16:3],,,4h[16:3],,,5,6,
7h[4:7]/4h[16:3],,,4h[16:3],,,3,3,3h[16:3],,,3h[16:3],,,4,3,
2h[4:4]/5h[16:3],,,5h[16:3],,,6,6,6h[16:3],,,6,
{16}
3,4,,6,5,,47,,
2b/6b,,,5,,,4,,,3h[16:3],,,4,,4,,
3,,,4,,,5,,,6h[16:3],,,5,,5,,
7h[1280:1],,,5h[1280:1],,,4h[1280:1],,,2h[16:3],,,4,,4,,
2h[1280:1],,,4h[1280:1],,,5h[1280:1],,,7h[16:3],,,5,,5,,
7,,,8,,,1,,,2h[16:3],,,1,,1,,
2,,,1,,,8,,,7h[16:3],,,8,,8,,
6h[1280:1],,,8h[1280:1],,,1h[1280:1],,,3h[16:3],,,1,,1,,
3h[1280:1],,,1h[1280:1],,,8h[1280:1],,2,1,,7,8,,6,,
1x/5x,,2,4,,3,5,,4,6,,5,7h[8:1],,2,,
8x/4x,,7,5,,6,4,,5,3,,4,2h[8:1],,7,,
4x/8x,,3,1,,2,8,,1,7,,8,6h[8:1],,3,,
5x/1x,,6,8,,7,1,,8,2,,1,3h[8:1],,6,,
3x/7x,,5,4,6,4,5h[8:1],,3,4,,6,5,,7,,
6x/2x,,4,5,3,5,4h[8:1],,6,5,,3,4,,2,,
4x/8x,,6,5,7,5,6h[8:1],,2,1,,7,8,,6,,
5x/1x,,3,4,2,4,3h[8:1],,
6x,5,4x,3,6x,5,4x,3,
8x-4-2[4:1],7,6h[8:1],,8x,,6,7,6x-8[8:1],,5,,4h[4:1]/6,,,,
1x-5-3[4:1],8,7h[8:1],,1x,,7,6,7x,,6,,5-1[8:1],,4,,3xh[4:1],,,,,,
8x,8,7x>5[16:7]/3xh[8:6],,,,,,,,,,,,,,3,4,5h[8:1],,2h[8:1],,7h[8:1],,3xh[8:4],,
6x,5,6x,5,6x,5,6x,5,6x/4xh[8:3],5,6x,5,6x,5,6x,5,
6xh[8:4]/3x,4,3x,4,3x,4,3x,4,3x,4,5,6,3x,4,5,6,
5x,4,5,,3x/5x,,3,4,3,4,5x,,4x/6x,,56,,
3,5,3,,3xh[4:1],,5,5,
,6x/4x,5x,6,3x,4,5x,6,
1x-5-7[4:1],2,3h[8:1],,1x,,3,2,3x-1[8:1],,4,,5h[4:1]/3,,,,
8x-4-6[4:1],1,2h[8:1],,8x,,2,3,2x,,3,,4-8[8:1],,5,,6xh[4:1],,,,,,
1x,1,2x<4[16:7]/6xh[8:6],,,,,,,,,,,,,,6,5,4h[8:1],,7h[8:1],,2h[8:1],,6xh[8:4],,
3x,4,3x,4,3x,4,3x,4,3x/5xh[8:3],4,3x,4,3x,4,3x,4,
3xh[8:4]/6x,5,6x,5,6x,5,6x,5,6x,5,4,3,6x,5,4,3,
4x,5,4,,6x/4x,,6,5,6,5,4x,,5x/3x,,43,,
16,,48,,25,,46,4x/6x,,53,5x/3x,,8x-4[8:1]/4x,,7,,
6b/8b,,,,{32}7x,A7,{16},3,4,,{32}7x,A7,{16},5,{32}7x,A7,{16}5,4,,
8,,1,,{32}7x,A7,{16},4,5,,{32}7x,A7,{16},6,{32}7x,A7,{16}6,5,,
8,,7,,{32}7x,A7,{16},3,4,,{32}7x,A7,{16},5,{32}7x,A7,{16}5,4,,
3,,5,,{32}7x,A7,{16},3,,4x-1[12:1]/6x>4[12:1],4x/6x,,4x/6x,,,,,
1x/5x,,7,,{32}2x,A2,{16},6,5,,{32}2x,A2,{16},4,{32}2x,A2,{16}4,5,,
1,,8,,{32}2x,A2,{16},5,4,,{32}2x,A2,{16},3,{32}2x,A2,{16}3,4,,
1,,2,,{32}2x,A2,{16},6,5,,{32}2x,A2,{16},4,{32}2x,A2,{16}4,5,,
6,,4,,{32}2x,A2,{16},6,,5xs1[6:1]/1x,1x/5x,,1x/5x,,,,,
3bh[8:3],,,,,,8xq3[16:8],7,6h[8:7],,,,,,,,,,,,,,
4,3,2x/5x,4,3x/6x,5,4x/7x,6,5x/8x,7,6xh[8:3]/1x,,,,,,1xq5<8[1:1],2,3h[4:1],,,,,,,,
B1/E2,,,,,,B4/E5,,,,,,E3/A3,,,,8xV64[16:9],,,,,,,,,,,,,,,,
6x,5,4,3,4x,3,4,6,5,4,5,4,3,4,3,5x,
2x>5-1[16:9],,,,,,A7/E8,,,,,,B66/A6,,,,
2xh[16:3],,,5h[16:3],,,8V24-8[2:1],,8,,,,,,,,
6bh[8:3],,,,,,1xp6[16:8],2,3h[8:7],,,,,,,,,,,,,,
5,6,7x/4x,5,6x/3x,4,5x/2x,3,4x/1x,2,3xh[8:3]/8x,,,,,,8xp4>1[1:1],7,6h[4:1],,,,,,,,
B8/E8,,,,,,B5/E5,,,,,,E7/A6,,,,1xV35[16:9],,,,,,,,,,,,,,,,
3x,4,5,6,5x,6,5,3,4,5,4,5,6,5,6,4x,
7x<4-8[16:9],,,,,,A2/E2,,,,,,B33/A3,,,,
7x,,5,,47,,35,35,,46,46,,1x-5[8:1]/7x,,2,,
3bh[8:3]/1b,,,,,,5,4,3x/6x,4,5,6x,5,4,3,5,4x/6x,,,,,,
5,4,3x/6x,4,3x,4,3x/5x,4,5x,4,5xh[8:3],,,,,,
4,5,3x/6x,5,4,3,4x,5,6,5,
2xh[4:1],,4,,4,,7xh[4:1],,5,,5,,C,,,,
3x/6x,4,5,4,3x/6x,5,4,5,3x/6x,4,5,4,3x/6x,4x/5x,3x/6x,,
4x/6x,3,5,4,3x/6x,4,3x,4,3x/6x,5,6x,5,3x,4,5,4,
7xh[4:1],,4,,4,,2xh[4:1],,5,,5,,4xh[4:1],,,,
8,,,37,,,25,,38,38,,15,,28,,16,
6bh[8:3]/8b,,,,,,4,5,6x/3x,5,4,3x,4,5,6,4,5x/3x,,,,,,
4,5,6x/3x,5,6x,5,6x/4x,5,4x,5,4xh[8:2],,,,,,
4,3,5x/2x,3,4,5,4x,3,2,3,
6xh[4:1],,4,,4,,1xh[4:1],,3,,3,,C,,,,
6x/3x,5,4,5,6x/3x,4,5,4,6x/3x,5,4,5,6x/3x,5x/4x,6x/3x,,
6x/4x,7,5,6,7x/4x,6,7x,6,7x/4x,5,4x,5,7x,6,5,6,
3xh[4:1],,6,,6,,8xh[4:1],,5,,5,,6xh[4:1],,,,
1,,,16,,,74,,26,,{32}2x/6x,37,48,51,2x-6[8:1]/6x-2[8:1],,,,,,,,2xb/6xb,Cf,
