&title=Halcyon
&artist=xi
&first=0
&des=FANdoraxxx
&des_6=14
&lv_6=14
&inote_6=(95.5){4},,,,,,,6h[8:1]/3h[8:1],
{1}Cf/A7/E7/B6/A2/E3/B3,
{8}6<3[4:9]*<3[4:9],1h[8:1],{12}6,2,3,{8}4,4,5,5h[8:1],
{16},,,5pp2[16:17]*pp2[16:17],{1},{4},,7h[8:1]/2h[8:1],
{2}Cf/A7/E7/B6/A2/E3/B3,3x>8[4:1],
{4}3x>7[4:1],3x>6b[4:1],{16},,,,,3,5,3h[#0.7853413],
{4}4xz8[0.6283##1.3793],(87),4xh[#0.6896553],(78){12},5,6,
{4}7xqq4[0.7692##2.7227]/8xpp3[0.7692##2.7227],(69),,(61),
(63){8},2xh[#0.4761906]/6xh[#0.4761906],(191){4},{16}8x,7,6,3,2,1,8,7,
{8}6b/3b,3-7[8:1],,1w5[8:1],,1,,8x<5b[4:1],
,5x>8[8:3],,1xh[4:1],{32},,,,,,,,,7,6,5,4,3,2,1,
{8}8,6-2[8:1],,8w4[8:1],,8,,1x>4b[4:1],
,4x<1[8:3],,8xh[4:1],{32},,,,,,,,,2,3,4,5,6,7,8,
{8}1,,,2,6,1,5,3x>6[8:3],
,,6<3[8:3],5h[8:3],,,,7,
4h[8:3]/Ch[8:3],,,,,2,3/5,4xpp1[8:3]/6xqq1[8:3],
{16},,,,,,,,,,,,1x,2,3,6,
7,8,1,2,{8}3b/6b,6-2[8:1],,8w4[8:1],,8,
,1x>4b[4:1],,4x<1[8:3],,8xh[4:1],{32},,,,,,,,,2,
3,4,5,6,7,8,{8}1,3-7[8:1],,1w5[8:1],,1,
,8x<5b[4:1],,5x>8[8:3],,1xh[4:1],{32},,,,,,,,,7,
6,5,4,3,2,1,{4}8xh[4:1],{8},7/5,6/4,5xqq8[8:3]/3xpp8[8:3],
,,,,,1x/8x,7x/2x,3bV58[4:1]/6bV41[4:1],
{16},,,,,,,,3,4,3,4,3,4,1,8b,
7,6,5,4,3,2,1,5x<3[4:1],6x<3[16:3],7x>3[8:1],{8}8x>3[16:1],,,{4}8bx-4[8:1],
8,{8}7,5/3,2,4h[4:1],
,1,,7-4[4:1]/3-8[4:1],,,,,{4}6b-2[8:1],
6,{8}8,6/4,3,5h[4:1],
,2h[4:1],{16},,,1,8,7,6,5,8-4[8:1],7,6,5,
{4}8b/4bx,{8}7/3,6h[8:1],5,3h[8:1],4,5/1,
{16}2x,3,{8}4,{16}7x,6,{8}5,{16}3x/7x,4/8,{8}5/1,{16}4x/8x,3/7,{8}2/6,
8-5[8:1],1,2,3-6[8:1],1,8,7-4[8:1],1,
7,{16}1,1,{8}1,3x/6x,{16}4,5,4,5,3,6,2,7,
{4}1bx-5[8:1],1,{8}2,4/6,7,5h[4:1],
,8,,2-5[4:1]/6-1[4:1],,,,,{4}3b-7[8:1],
3,{8}1,3/5,6,4h[4:1],
,7h[4:1],{16},,,8,1,2,3,4,1-5[8:1],2,3,4,
{4}1b/5bx,{8}2/6,3h[8:1],4,6h[8:1],5,4/8,
{16}7x,6,{8}5,{16}2x,3,{8}4,{16}6x/2x,5/1,{8}4/8,{16}5x/1x,6/2,{8}7/3,
1-4[8:1],8,7,6-3[8:1],8,1,2-5[8:1],8,
2,{16}8,8,{8}8,6x/3x,{16}5,4,5,4,6,3,7,2,
{1}8bq2>6[4:5],
{6},,,7x>2[6:1],2x>4[6:1],4x<6[6:1],
{4}6x<5[1:1],4h[2:1],,,{2}4xq6[2:1],
7h[4:1],
{4}5-1[4:1]/2>5[4:1],,,4-8[4:1]/7<4[4:1],
,,3/7,5-3-6-2-7-1[1:1],
{1}5bh[1:1],
E5f,
{4}4/5,{32}B3,B4,{16}B5,,,,,,,{8}3,2,
{16}7,,,8-5[8:1],,,{8}3,{16}2,,,1-4[8:1],,,{8}6,
{24}8x,7x,{12}6x,{24},,{8}3,4,5,6,3,4,
5,6,3,4,5,6,{4}1/8,
{32}8h[8:3]/1h[8:3],,,,,,,,,,,,,7x/2x,{16}6x/3x,,,,,{8}2/7,3/6,
{32}8h[8:3]/1h[8:3],,,,,,,,,,,,,7x/2x,6x/3x,5x/4x,,,,,,,,,{8}3/6,4/5,
{2}8h[8:3]/1h[8:3],{8}2x/7x,6x/3x,{4}4x/5x,
4b/5b<1[8:1],{32}1b,2,3,4,{8}5,,,,,{4}5h[4:9],
8,8,8,
8,8,8,8,
{2}8s4[1:1],{4}5,5,
5,5,{16}2b/4b,,,7b/5b,,,{8}1b,
{4}4b/6b,6/4,4/6,4/6,
4/6,3/5,5/3,5/3,
5/3,8/1,2/7,3/6,
{32}E6,B5,B4,E4,,,,,E2,B1,B8,E8,,,,,{16}8b/2b,,,5b/3b,,,{8}7b,
{4}2b/4b,{8}6/4,6,6,4,5/3,3,
3,7/1,7,7,2/8,2,7,5,
{16}4,3,{8}2,{16}4,3,{8}2,{16}5,6,{8}7,{16}5,6,{8}7,
{16}2,5,,3,,7,{8}3,6,{16}4,4,{4}4,
{8}6/2,5/3,4,3/7,4/6,5,8/1,2/7,
3/6,4/5,2/6,5/7,1/3,8/4,{4}6bxh[2:1]/2bxh[4:1],
{32},1x,8x,7bxh[32:13],,,,,,5x,4x,3bxh[32:13],,,,,,8x,1x,2x,,,,,,4x,5x,6x,,,,,1bx,
2x,3x,4x,1bx,2x,3x,4x,,,,,8bx,7x,6x,5x,8bx,7x,6x,5x,,,,,1bx/8bx,2x/7x,3x/6x,4x/5x,1bx/8bx,2bx/7bx,3bx/6bx,4bx/5bx,
{4},,,A7/E7/B6/A2/E3/B3/C,
{8}7b/2b,2-6[8:1],,4w8b[8:1],,4,,5x<8[4:1],
,8x>5b[8:3],,4xh[4:1],{32},,,,,,,,,6,7,8,1,2,3,4,
{8}5b,7-3[8:1],,5w1b[8:1],,5,,4x>1[4:1],
,1x<4b[8:3],,5xh[4:1],{32},,,,,,,,,3,2,1,8,7,6,5,
{8}4bh[8:3],,,2,6,1,5,3x-1-6[8:3],
,,6b-8-3[8:3],5h[8:3],,,,7,
4bh[#0.4712067]/Cfh[8:3],,,,,2,3/5,4bx-2-7[8:3]/6bx>5-1[8:3],
{16},,,,,,,,,,,,4x,3,2,7,
6,5,4,3,{8}2b/7b,7-3[8:1],,5w1b[8:1],,5,
,4x>1b[4:1],,1x<4[8:3],,5xh[4:1],{32},,,,,,,,,3,
2,1,8,7,6,5,{8}4b,2-6[8:1],,4w8b[8:1],,4,
,5x<8b[4:1],,8x>5[8:3],,4xh[4:1],{32},,,,,,,,,6,
7,8,1,2,3,4,{4}5bxh[4:1],{8},7/5,6/4,5xqq8[8:3]/3xpp8[8:3],
,,,,,1x/8x,7x/2x,3bV58[4:1]/6bV41[4:1],
{16},,,,,,,,2,1,2,1,2,1,4,5b,
6,7,8,1,2,3,4,8x<2b[4:1],7x<2b[16:3],6x>2b[8:1],{8}5x>2b[16:1],,,7b,
7-3b[8:1],,5w1b[8:1],,5,,4x>1b[4:1],
,1x<4b[8:3],,5xh[4:1],{32},,,,,,,,,3,2,1,8,7,6,5,
{8}4b,2-6b[8:1],,4w8b[8:1],,4,,5x<8b[4:1],
,8x>5b[8:3],,4xh[4:1],{32},,,,,,,,,6,7,8,1,2,3,4,
{8}5xh[8:3],,,4xh[8:1],3xh[8:1],2xh[4:1],{4}1xh[8:3],
{8},8b,,6,,7,{4}1h[8:5]/8h[4:1],
{32},7b,6,5,,,,,,,,,2b,3,{16}4,,,{8}1/8,1/8,{32}1b/8b,7b/2b,6bV41b[16:5]/3bV58b[16:5],5b/4b,
{4},,,{16}4,6,5,7,
2,1,2,1,2,1,3x,8,3,8,3x,8,3,8,4x,8,
4,8,4x,8,4,8,4x,8,4>1[8:1],4,4x,4,{4}4,
{16}7,8,7,8,7,8,6,1,6,1,6,1,6,1,7b,1,
5,1,7b,1,5,1,7b,1,5,5,{8}7b,{16},,8/1,8/1,
{8}1/8q5<6q3[2:1],,,,,1,8,7v1<8-3[8:3],
,,,,,5/4,6/3,2/7-4[8:1],
,7b,{4}8-5[8:1],{8}8b,6-3[8:1],{16},,2b/6b,1,
8,7,6,5,4,3,2,1,8pp4[8:3]*pp5[8:3],3,2,1,{4}8,
,3b-5<8[4:7]/6b-4>1[4:7],
E
