&title=彁
&artist=LeaF
&first=0.09
&des=Polyrhythmic Aza
&lv_5=15
&inote_5=(125)
{48},,,,,,,,,{12}1/8h[12:9],,1,,1,,1,,{48}1,,A7,A6,A5,A4,A3,
{24}8bx<5[12:1],,2,1x,2,,8,,{36}8,7,6,{24}5,,1x>4[12:1],,7,8x,7,,1,,,E3,E4,E5,
{40}8x-4[12:1],,,,8,7x,6,5,1,,8,,,,2,,8,7,6,5,{8}3xq6[6:1],1hx[24:7],{4},
{8}8x/7,{28}C,3,,4,,2,,,5<8[5:1],,{56},1x,,{28},1b,{56},,C,,{28},2b,,,,3b,,,,
{40}1x/2,,,,3,4x,3,,2pp5[8:1]/5,,,,6,,,,7,,,,8x,,,,,8hx[40:5],,,4b,,4,3,2,1,8,7,6,5,4,3,
{8}1x/2,{28}C,6,,5,,7,,,4>1[5:1],,{56},8x,,{28},8b,{56},,C,,{28},7b,,,,6b,,,,
{40}8x/7,,,,6,5x,6,,7qq4[8:1]/4,,,,3,,,,2,,,,1x,,,1,2,3x-8[12:1],,,5b,,,,6,5,4,3,,,,,
{24}7x,,4,5x,4-1[12:1],5,4,6,4,5,4,,{56}8x,,{28},8b,{56},,C,,{28},7b,,,,6b<3[14:9],,,,
{8}B5,B4,,,B5,B4,,{40},5,4,5,,{8}3bx/6bx,{40}3bx/6hbx[8:3],,,B1,,,,,,,,C,,,,{8}B5,6,5,4,
{8}3/4,3,3/2,3,3/1>4[8:1],8,1/8,8,5/6,6,6/7,6,6/8<5[8:1],,1>4[12:1]/8,,
{20}1/8,,6,5,6,,7/8,,1/2,,3-8[157#8:1]/8,,,,3/6-1-5[157#4:1],,5,,3/6,,4,,,,2/8,,3,4,3,,
{8}8x/7,{28},3,,4,,2,,,5,,{56},
{28}1/5,2/6,3b/7b,4/8,1/5,,1b,{56}2x,,,,,,2x,3b,,,,,,,{4}2h[7:1]/4h[8:1],3h[8:1]/5h[7:1],4h[7:1]/6h[8:1],5h[8:1]/7h[7:1],6h[7:1]/8h[8:1],7h[8:1]/1h[7:1],
{20}2/8,,3,4,3,,1/7,,2/6,,3/5-1[157#8:1],,,,5/2-4-8[157#4:1],,3,,2/7,,6,,,,1/7,,6,5,6,,
{8}1x/2,{28},6,,5,,7,,,4,,{56},
{28}4/8,3/7,2b/6b,1/5,4/8,,8b>5[7:9],{56}7x,,,,,,7x,6b,,,,,,,{4}6,7,8,1,2,3,
{28}4/5,3/6,2/7,{56}1/8,{8},{56}B3,,8h,,,,,{8}B4,{56}B5,,,,8h,,,{8}B6,{56}B7,,,,,,8h,{8}B8,B1,{56}B2,8h,,,,,,{8}B3,{56}B4,,,,8h,,,{8}B5,{56}B6,,,,,8h,,{8}B7,B8,
{8}1h/E1,E8,{56}E7,,1h,,,,,{8}E6,{56}E5,,,,1h,,,{8}E4,{56}E3,,,,,,1h,{8}E2,E1,{56}E8,1h,,,,,,{8}E7,{56}E6,,,,1h,,,{8}E5,{56}E4,,,,,1h,,{4}E3,
{8}1/B5,B4,{28},2h,,,,,,{56}B5,,,,3h,,,B4,{28},,,,,,4>5[4:3],,,,{8}B5,B4,,,{8}B5,{28}B4,,,,,,{56},{7}C,
{28}1/7hb[256:1],2,3,4,5,6,7,8,1,2,3,4,5,6,7/3hb[256:1],8,1,2,3,4,5,6,7,8,1,2,3,4,5/1hb[256:1],6,7,8,1,2,3,4,5,6,7,8,1,2,3/7hb[256:1],4,5,6,7,8,1,2,3,4,5,6,7,8,
{20}1b/5,,3,4,3,,4/8b,,6,5,6,,1,5,2,6>3[10:1],3,7,4,8,6,,,{30}7,6,5,4/8,7,6,5/1,8,7,{20}6/2,2,4,3,5,4,6,5,7b/Cf,,,
{28}8/2hb[256:1],7,6,5,4,3,2,1,8,7,6,5,4,3,2/6hb[256:1],1,8,7,6,5,4,3,2,1,8,7,6,5,4/8hb[256:1],3,2,1,8,7,6,5,4,3,2,1,8,7,6/2hb[256:1],5,4,3,2,1,8,7,6,5,4,3,2,1,
{20}4/8b,,6,5,6,,1b/5,,3,4,3,,8,4,7,3<6[10:1],6,2,5,1,3,,,{30}2,3,4,5/1,2,3,4/8,1,2,{20}3/7,
{28}3/7,6/2,1/5,4/8,3/7,2,1,8,B2,B3,E4,B7,B6,E6,
{28}1/7hb[256:1],2,3,4,5,6,7,8,1,2,3,4,5,6,7/3hb[256:1],8,1,2,3,4,5,6,7,8,1,2,3,4,
{140}5/1hb[256:1],,,,,6,,,,,7,,,,3hb[256:1],8,,,,,1,,,,,2,,,6hb[256:1],,3,,,,,4,,,,,5,,1hb[256:1],,,6,,,,,7,,,,,8,3hb[256:1],,,,1,,,,,2,,,,,3/7hb[256:1],,,,,4,,,,,5,,,,1hb[256:1],6,,,,,7,,,,,8,,,3hb[256:1],,1,,,,,2,,,,,3,,6hb[256:1],,,4,,,,,5,,,,,6,1hb[256:1],,,,7,,,,,8,,,,,
{40}1b/6,,,,,5b<8[104#16:1],,,,,,1b,,,,,,2b/5,,,2b,,,2bv5[104#16:1],,,,,,3b,,,,,,2b/8b,,,,,{20}8b,1,2,3/8,1,2,3-1V75p4b[40:13]/8,1,2,3/8h[40:17],{2},
{28}8/2hb[256:1],7,6,5,4,3,2,1,8,7,6,5,4,3,2/6hb[256:1],1,8,7,6,5,4,3,2,1,8,7,6,5,
{140}4/8hb[256:1],,,,,3,,,,,2,,,,6hb[256:1],1,,,,,8,,,,,7,,,3hb[256:1],,6,,,,,5,,,,,4,,8hb[256:1],,,3,,,,,2,,,,,1,6hb[256:1],,,,8,,,,,7,,,,,6/2hb[256:1],,,,,5,,,,,4,,,,8hb[256:1],3,,,,,2,,,,,1,,,6hb[256:1],,8,,,,,7,,,,,6,,3hb[256:1],,,5,,,,,4,,,,,3,8hb[256:1],,,,2,,,,,1,,,,,
{40}3/8b,,,5b/6b,,,,,,7b/E5,,,,,2b/C,,,,,,1b/8b,,,,8b,,1b,,,1b,,,,,2b/4b,,,,3b,,{20}1b,8,7,6/1,8,7,6p4-2-8-6b[40:13]/1,8,7,6/1h[35:59],{2},{8}B5,B4,,,5,5,6,{32}6,,,E6,B5,B4,E4,,{8},{56},1b/8b,2b/7b,3b/6b,4b-6-2-8[7:3]`5b-3-7-1b[7:3],,,,,,{7},,,,
,,,,E7,,,,C,,,,E3,,{28}1b,2,3h[2:1],,,,,,8,7,6h[2:1],,,,,,,4,5h[2:1],,,,,,,7,8h[2:1],,,,,,,4,3h[2:1],,,,,,,1,2h[2:1],,,,,,,4,5h[28:38],,,,,,,1,8z4[56:73],,{7},,,,,,,,,,,C,,
{24}1b>4[7:1]/8bx,,1,7,1,7,{168}1b,,,,,,A2f,7-3[7:1],,,,,,,{24},,,8,1,{168}7b,,,,,B7f,,2-6[7:1],,,,,,,{24},,,1,8,{168}2b,,,,B2f,,,8-4[7:1],,,,,,,{24},,,7,2,{168}8b,,,B8f,,,,3,,,,,,,{24},,,5,6,{168}7,,E7f,,,,,8,,,,,,,{24}1,2,3,4,5,{168}6,E2f,,,,,,7,,,,,,,{24}8,1,2,3,4,
{24}8bz4[7:1]/5,,,2/6,,,{168}8b,,,,,,,B8f,2-6[7:1],,,,,,{24},,,1,8,{168}2b,,,,,B2f,,7-3[7:1],,,,,,,{24},,,8,1,{168}7b,,,,B7f,,,1-5[7:1],,,,,,,{24},,,2,7,{168}1b,,,B1f,,,,6,,,,,,,{24},,,4,3,{168}2,,E3f,,,,,1,,,,,,,{24}8,7,6,5,4,{168}3,E8f,,,,,,2,,,,,,,{24}1,8,7,6,5,
{24}4b/8b,,7,1,7,1,6,2v5[8:1],6,2,5V38[6:1],,,2x/1x,,,,,7,6,5,4,3,2,1/5,,{48}8,7,6,,2,3,4,,7,6,5/2,,{24},3,4,3,4,3,,8x,,6,5,6,5,6,7,8,1,,2,8,2,8,3,7v4[8:1],3,7,4V61[6:1],,,7x/8x,,,,,2,3,4,5,6,7,8/4,,{12}4/8,1/5,1/5,2/6,2/6,3/7,3/7,{24}8,4,8-4b[7:5],4,8,4,8,4,
{7}8,,1,,2,,3,{10}1/8,{40}7,6,7,6,7,,,,4,5,4,,3/6,,3/6,,3/6,5,4,3,,,1,,1,,{4}1x-5b[7:5],
{7}1,,8,,7,,6,{10}1/8,{40}2,3,2,3,2,,,,5-7>2q3b[10:3],4,5,4,5,,,,{4},,
{8}1bx>8[1:1],1x,{28},{7}C,,C,,C,,C,,{56}C,,,,{40}3,4,5,6,7,6,5,4,2,3,4,5,8,7,6,5,1,2,3,4,{20}6,5,6b,3,4,3b,6,5,7b,3,4,2b,6,5,8b,3,4,1b,7,5,8b,2,4,{40}1b,2,3,4,5,6,7,8,1b,2,3,4,5,6,7,8,1b,2,3,4,5,6,7,8-5[1:1],1b-4b[1:1],2,3,4,5,6,7,8,1,2,
{7}3,,,,,,,,C,,{56}C,,,,{40}6,5,4,3,2,3,4,5,7,6,5,4,1,2,3,4,8,7,6,5,{20}3,4,3b,6,5,6b,3,4,2b,6,5,7b,3,4,1b,6,5,8b,2,4,1b,7,5,{40}8b,7,6,5,4,3,2,1,8b,7,6,5,4b,3,4,3,4,3,5b,2,5,2,5,2,6b,1,6,1,6,1,7b,8,7,8,
{7}7b-3[15.625#64:1],,A6,,A5,,A4,,A3,,A2,,A1,,
