&title=鼓動
&artist=青木 千紘「龍が如く 維新!」
&first=0
&des=鼓動
&lv_6=13+
&inote_6=(121)
{4},,,{8},
{16}53,46,7pp5[8:4]/5p4[8:4],,,,,,,,,,,,
,,7,,7h[16:6]/6,,,5,,,4qq3[16:5],,,,6,,7,,8,,
1qq3[8:4]*qq4[8:4],,,,,,,,,,,,
,,2,,1h[16:6]/7,,,6,,,4,,3-8[10:1]/2^5[10:1],,,,,,,,
1b/4h[16:4],,,,8>4[16:4],,,,86,,,,5,,5,,
7h[16:3],,,8,{8}7,1/6h[16:8],2,3,4,5,
6qq1[8:3]/4,,3,,2,,
8^6[32:3]*^2[32:3]/4,,8^5[8:1]*^3[8:1],,8>4[8:1]*<4[8:1],,8,,8b,,
{8}7/5p1[32:4],,6h[32:8],,8,7,6-3[32:3],,
2-5[32:3],1,6-3[32:3],7,2p8[32:8],,8,,
4q8[32:4],,2h[32:8],,1,2,3-5[32:3],,
{16}1-5[32:3],,8,,7-1[32:3],,,5,5qq3[32:5],,3,,8/5,,7,,
{16}36,,6,6,8,,3,3,5,,7,1,7,,,,
34,,6,6,8,,74,,6,6,5,5,4,3,4,,
3,3,8,1,6,6,1,8,
3,3,8,1,6,6,1,8,
72,,13,,65,,71,,3-8[10:1]/2^5[10:1],,,,2b/3b,,,,
{8}4/5pp6[16:3],,1,{16},8,1,2,
{8}3,8<6[32:2],8<5[32:3],8>2[32:2],8>3[32:3],8,8,
{16}7s3[32:5],6,5,4,7,,,,
35,,8,8,4,,1,1,5,,
7,7,4,,2,2,5,,6,6,2,,
4,4,1,,6,6,8,,5,5,
2^8[32:3],,2,,7>3[32:5],,7,,
4p6[48:9],,4,,6,,6,,
5,6,7,8,1q6[8:1]/5>2[8:1],,15,,,,,,
8,,8,,34,,6,5,{8}6p1[8:1],2^5[32:3]/5,1,,8,72,
{16}6,6,4,5,6,,
8,8,2,1,8qq5[16:8],,,,,,
{16}4,,4,,3,,3,,2,,2,,1,,1,,
7<4[12:1],,7,,3-7[12:1],,3,,
8-5[12:1],,8,,3,,3,,
5-7[16:1],,5,,3-5[16:1],,3,,1-3[16:1],,1,,7,,7,,
3>8[12:1],,3,,7-3[12:1],,7,,
5v8[10:1]*-2[10:1],,5,,,,,,
4-2[16:1],,4,,6-4[16:1],,6,,2-6[12:1],,2,,8-4[12:1],,
8,,8b-6[16:1],,1,,8b-4[12:1],,1,,8b-3[12:1],,1,,8b,,1,,
2-5[12:1],,1,,8-4[12:1],,7,,6-1[12:1],,5,,3,,3,,
{16}6,6,3,3,5,5,4,4,
{32}6,5,4,3,2,1,8,7,
1,8,7,6,5,4,3,2,
{16}8b,,,,,,,,
6pp8[32:4]/1pp3[32:4],,,,,,,,
{16}4,6,3,5,2h[32:4],,3,,
6,4,7,5,8h[32:4],,6,,
8<2[48:11],,8,,1>7[48:11],,1,,8V63[32:5]*p3[32:5],,8,,,,,,
7,5,8,6,8h[32:4],,1,,
2,4,1,3,1h[32:4],,7,,1>7[48:11],,1,,
8<2[48:11],,8,,1>6[32:5]*q6[32:5],,1,,,,,,
4V25[32:5],,7,,4-8[32:3],,8,,7,,6,5,4-7[32:2]/1,,,,4-6[32:2]/3,,1,,4>6[16:4]/3,,2,,4/3,,4,,4,,4h[8:1],,
7,5,8h[8:1],,3,1,4h[8:1],,7,5,8h[8:1],,3,1,4h[8:1],,
8,2,1h[8:1],,3,5,4h[8:1],,8,2,1h[8:1],,3,5,4h[8:1],,
5,8,7h[8:1],,1,6,5h[8:1],,8,2,1h[8:1],,3,7,4h[8:1],,
8,5,6h[8:1],,1,6,5h[8:1],,8,3,4h[8:1],,1b>8[16:5],4,3h[8:1],,
1b,,1b,,1b,,1b,,2b,,2b,,2b,,2b,,
3b,4,1b,4,8b,5,4b,6,5b,7,8b,6,1bw5[12:1],,2b/5w1[12:1],,1b,
