&title=Mr.Midnight
&artist=AXURA ft. PANXI
&first=0
&des=Ms.FallingL
&clock_count=4
&wholebpm=170
&des_5=Ms.FallingL
&demo_seek=110.5
&demo_len=20
&lv_5=13+
&inote_5=(170){1},,
{8}3x/5x<8[8:1],,C,,1>4[8:1],,6,6v1[8:1],,2,2q4[16:5],,C,,8x,,
7/1>4[8:1],,C,,5<8[8:1],,2,2v5[8:1],,7,7q2[16:5],,C,,4x,,
8hx[8:1],,8hx[8:1]/1,,{16}7h[8:1]/2,,,3,7h[8:1],,4,,6h[8:1],,5,,6h[8:1]/5,,,,5h[8:1]/A2/B2/E3,,,,4-8[8:1]/A7/E7/B7,,3,,
2-6[8:1]/4b,,,,2b/7-1[32:3],,,,57,,,4,1hx[8:1],,4-2v8[8:3],,,,8,,8-6[8:1],,,,5,,,,B3/B2/B7/B6/C,,,,
8b/1b-4[8:1]*-6[8:1],,,,1b,,,,27,,1<5[8:1],4,3,,1h[4:1],,,,4x-8[8:1],,2-5[8:1],,4,,2,,,,37,,4,,
5w1[8:1],,,,5,,,,37,,1-6[8:1],8,2,,3h[8:1]/1-5-2-4[16:5],,,,5,,6,,7,,8,,1bx,1bx,1bx,,,,
8v3[8:1]*v5[8:1],,17,,8b,,,,26,,5>7[4:1],4,6,,7q5[16:3]/5x,,,,6,,,,8-4[8:1],,3>8[8:1],,8<5b[8:1],,3,,,,
4xw8[8:1],,,,4,,,,2x/6x,,5,3x,4,,1bx/8bx,,,,E5,,C,,E1,,2x-6[32:3]/7x,,,,E8/A8/D8,,,,
{8}7hx[8:1]/5,,7hx[8:1]/5s1>4[4:3],,8,,7,7,,6,5q3[4:1],,7h[4:1],,,,
2h[8:3]/4,,4z8<5[4:3],,1h[4:1],,,2,3,3,4p6[4:1],,2h[8:1],,B5/B4,,
7h[8:3]/1,,1q5v2-4[4:3],,8,,6,6,,7,8V64[4:1],,8,1,2,3,
4xpp3[8:3]/5hx[8:1],,6,7,8-4-8[4:1],,8,2b-4-1-5-8-6b[8:5],,,,,,,,,
{16}7,,,7,E5,,7,,2,,,2,E1,,2,,5,,5,,5-2-4[4:1]*-8-6[4:1]/C,,,,5x,,,,,,,,
3,,,3,E1,,3,,6,,,6,E5,,6,,5,,5,,5-8[32:3]*q2[8:1]/C,,,,5x,,,,1x-3[32:3],,,,
1b/8-4[8:1],,,,8b/7-5[32:3],,,,7/2x,2hx[16:3],,,4x-2b[32:3],4x,,,4/5-1b[8:1],,,,5/6-8b[32:3],,,,6/3h[8:1],,,,1,,2,,
8-4-6[4:1]/3,,8,,3,,2,,1h[8:1],,,,78,,6b/1b>6[2:1],,,,E1,,E2,,E3,,E4,,E5,,E6,,,,
7h[4:1],,5,,8h[4:1],,5,,6<1[8:1],5,6,,4,,3,,2v5[8:1],,5V37[4:1],,2,,7V14[16:3],,,5hx[8:1],,,6,,7,,
8,5,8,5,7,4,7,4,6,3,5-1[8:1],2,4,,1b/5b,,,,3>8[8:1],,8-4b[8:1]*<5[8:1],,3,,A8f,,,,,,,,
3h[8:1]/4,,,,3h[8:1],,,,4h[8:1],,,4h[8:1],,,3,4,2h[8:1],,,,2h[8:1],,,,18,,E2/A2/B2,,E8/B7/A7,,,,
6/5h[8:1],,,5h[8:1],,,6,5,7h[8:1],,,7h[8:1],,,6,7,5,,5,,5pp8[8:3]*qq2[8:3],,,,5x,,,,,,,,
3x,5,3,5,3,5,3,5,4x,6,4,6,4,6,4,6,2x,7,2,7,1x,8,2x,1,3h[4:1],,4,,5,,6h[8:5],,
{32}2bx,3,4,5,,7,8,1,2bx,3,4,5,,7,8,1,{8}2bx-5[8:1],8x-4[8:1],2,8-6-1-5-2b[8:3],,A6,A1,A5,A2f,{16}4x,3x,4x,3x,4hx[4:1],,
,,3,,1b/8bV61[16:3],,,,5>7[4:1],,,,5,,6,,6h[8:1],,5-1[8:1],,7-4[8:1],,5,,7-3b[8:1],,8,,8,,1-3-8-4[16:5],,
4x,,1,,8,,7,,6h,5h,6h,5h,7h[4:1],,1x<7[32:3],,1xv4[8:1],,1xv6[8:1],,1x>7b[4:1],,1x,,1x,,8,,8,,8h[4:1],,
,,1,,2b/7b,,3,4,2,,6V41[4:1],5,8h[4:1],,6x,,,,7,,7v2<8-3[8:3]*v4<6-3[8:3],,8,,7x,,,,,,,,
2x/4x,,6,5,7,,3,4,1h[16:3],,,8,,,7/2q5[8:3],,,,8,,8-4b[8:1],,,,8xw4[8:1],,,,,,,,
2bv5[8:1]/6b-1[8:1],,,,2b/6b`E2f,,,,4x/8x,,7x>4[16:3],5,6,,7h[8:1],,,,8-6[32:3],,5-1[8:1],,8,,5>7b[16:3],,6x,,5x/7x,,,,
4-1[8:1]*-7[8:1],,,,4,,,,3/7x,,8-3b[8:1],1,7,,6h[8:1]/8-4-7-5[16:5],,,,4,,3,,2,,1,,8b,8b,8b,,,,
1v6[8:1]*v4[8:1],,82,,1b,,,,73,,4<2[4:1],5,3,,2p4[16:3]/4x,,,,3,,,,1-5[8:1],,6-1b[8:1],,1,,6,,2,,
3x,4,3,4,1x,8,1,8,5x,6,4-8[8:1],5x,3,,2h[4:1]/4x,,,,1q5[8:1],,7p3b[8:1],,1,,7,,,,B8/C/B4,,,,
{4}3h[4:1],B1/B2,3h[4:1],B7/B8,6h[4:1],B5/B6,5h[4:1],B3/B4,
1h[4:1],B4/B5,1h[4:1],B6/B7,5h[4:1],B1/B8,7h[4:1],B2/B3,8h[4:1]/2h[4:1],,
{8}4h[8:1]/6h[4:1],,,5h[8:1]/3h[8:3],,4h[4:1],,2,2-7[8:1],,,,
4h/5,4/5h,4h/5,4/5h,4h/5,4>1[4:1]/5h,,1xq7[4:1],,7x<4[4:1],8x,8x,8hx[4:1],,,,
{16}7h[8:1],,,7h[8:1],{32}1x,B1,{16},7,,5h[8:1],,,5h[8:1],{32}8x,B8,{16},5,,6,,6,,6V85[4:1]/4V25[4:1],,,,4x/6x,,,,,,,,
{16}3h[8:1],,,3h[8:1],{32}8x,B8,{16},3,,4h[8:1],,,4h[8:1],{32}1x,B1,{16},4,,2,,2,,2p5[8:1]/8-5[8:1],,,,2x/8x,,,,4h[4:1],,,,
6x,4,6,4,6,4,6,4,5x,3,5,3,5,3,5,3,7x,2,7,2,8x,1,7x,8,6h[4:1],,5,,4,,3h[8:5],,
{32}7bx,6,5,4,,2,1,8,7bx,6,5,4,,2,1,8,{8}7bx-4[8:1],1x-5[8:1],7,1-3-8-4-7b[8:3],,A3,A8,A4,A7f,5x,{16}6x,5x,6x,5hx[16:3],,,6bx,,2b/8b,,3b/4b,,1b/7b,,28,,2-6[8:1]/8-4[8:1],,28,,
,,,,7b/1bV38[16:3],,,,4<2[4:1],,,,4,,3,,3h[8:1],,4-8[8:1],,2-5[8:1],,4,,2-6b[8:1],,1,,1,,8-6-1-5[16:5],,
5x,,8,,1,,2,,3h,4h,3h,4h,2h[4:1],,8x>2[32:3],,8xv5[8:1],,8xv3[8:1],,8x<2b[4:1],,8x,,8x,,1,,1,,1h[4:1],,
,,8,1,7b/2b,,6,5,7,,3V58[4:1],4,1h[4:1],,3x,,,,2,,2-5>3v6[8:3]*-7>1v6[8:3],,1,,2x,,,,,,,,
7x/5x,,3,4,2,,6,5,8h[16:3],,,1,,,2/7p4[8:3],,,,1,,1-5b[8:1],,,,1xw5[8:1],,,,,,,,
,,{24}45,36,27,{16}1bq5[8:1]/8b,,,,1/7v4[8:1],,8,,7/3,,3h[8:1],,5,3,5,3,6,4,7,5,8qq4[8:3],,4,,3,,2,,
1x-3[32:3],,8x,,1/5-1[8:1],,6V83[16:3],,5,,6,,,,5b>2[8:1]*<8[8:1],,,,5b-1[8:1],,,,5,,8b<3b[16:3],,,,2,,1-5-1[4:1],,
,,8,,7b/A5f,,,,8,3,6-1-4[32:7],5,7h[4:1],,6x,,,,6,,5<7v4q8[8:3]/3x>1v4p8[8:3],,4,,53,,,,,,,,
1,7,1,7,2,8,3,1,4h[16:3],,,3,,,8/2pp5[8:3],,,,7,,5-7v1-3b[8:3],,,,8h[4:1],,,,,,,,
Chf[8:7],,,,,,,,,,,,,,1b,,,,8b/6b,,3b/1b,,4b/5b,,1b>4[16:1]/8b<5[16:1],,,,,,,,
4xz8b[8:1]/5xs1b[8:1],,,,5b/4b`E5f,,,,2x/7x,,3x>5[16:3],5,4,,3h[8:1],,,,2-7[8:1],,4-8[8:1],,2,,4V25b[16:3],,,,4x/1,,8,,
7-4[8:1]*-2[8:1],,,,7,,,,5x/3x,,1<6[8:1],7,3,,4h[8:1]/1-5-2-4[16:5],,,,5,,6,,7,,8,,1b,1b,1b,,,,
7v4[8:1]/3-8[8:1],,84,,7b/3b,,,,26,,8>6[4:1],1,7,,6p8[16:3]/8x,,,,7,,,,4<7[8:1],,7>2b[8:1],,4,,3,,3,,
4x,1,4,1,3x,8,2,7,{32}1x,2,3,4,5-1[8:1],6,7x,8,1,2,3,4,{8}5x/7h[4:1],,8p4[8:1],2q6b[8:1],8,2,,B1/C/B5,,
,,,,{16}45,,1-5[8:1]/8-4[8:1],,27,27,1x/8x,,,,,,7bv4b[8:1]/3bv8b[8:1],,,,7bqq4[1:1]/3bp1[1:1]`Cf,
