&title=Memories of Kindness
&artist=Blue Archive OST
&first=0.265
&des=wangzai
&lv_5=12.7
&des_5=wangzai
&inote_5=
(80){16}1,2,1,2,,3,2,3,2,3,2,3,,4,3,4,
3,4,3,4,,5,6,5,6,5,6,5,,7,8,7,
1,2,3,4,,1,3,4,8,7,6,5,,5,7,8,
4,3,2,1,,4,2,1,5,6,7,8,,8,5,1,
2,5,2,3,,5,3,5,1,5,8,1,,6,4,3,
8,3,7,8,,3,6,2,{64}1/Cf,2,3,4,5,6,7,8,{4},,,{16},,{4}1>2>3<4-2-8-4-1-3-8>1[2:3],
7,
6,5,6,7,
6,5,5<6<7>8-6-4-7-5-8-4<5[2:3],1,
2,3,2,1,
2,3,{16}1b,,,2,{8}3,{16}7,6,
,,,1,{8}2/1,{16}4,4/5,,7,{8}8/7,,,,1/8,
{16}1,2,3,4>1[16:3],,,,,,,3<7[16:3],2<6[8:1],
,,,,,,7<2[8:1],6<3[16:1],,,,,,2,2,2,
3/1,2>3-1>2-6[16:3],,,,,,,{8}A6f,,,4/5h[8:3],
4,3,4,{16}5/4h[4:1],6,,6,{8}5,{16},7h[16:3]/E8,B8,B1,
{8}E2,3h[16:5],{16}E4,B4,B5,E6f,,,,,,,{8}6,
1,,,8,7/6,5,4/3,{16}2,3,
,,7,6,,,{8}6h[8:1],7,,,8,
6,4,2,{16}1/3,3/5,,5/7,{8}7/1,{16},,4,5,
{8}4,4/5,{16}8,1,{8}8,8/1,,,5<6-8>1-3<4-7-2-5q4[8:7],
{1}4-7-2-5<6-8>1-3<4p5[4:3],
{4}Cf,{16}5/3,{32}5/3,4,{16}3/5,4,4,5/3,{8}5/3,{16}6/4,{32}6/4,5,{16}4/6,5,
5,6/4,{8}6q6<7>8-6[8:5]/4q4>3>2-4[8:5],{4},,,{32},5,
,5,,5,,,,4,,4<6pp6-2[32:21],,4>2qq2-6[32:19],{4},,,{16},{8}A6f/A2f,
{16}1/2,8,2/3,1,{8}3/4,{32},6,,5/7,,7b/5b,,6,
,3,,4/5,,1xh[16:1]/8xh[16:1],,,2xh[16:1]/7xh[16:1],,,3xh[16:1]/6xh[16:1],,,{16}4h[32:5]/5h[32:5],{32},,,,,6/3,,7/2,,,,,{8}8/1,
8/1>2v3<4-1[4:1],8,8,7,6<7>8q8>1>2[2:1],3,4,5h[8:1],
,6,7,{16}1/2,5,{8}1/3,{16}8,8/6,,4,{8}8q8[32:7]/6p6[32:7],
{16},,,,,,7/5,4,{8}7/5,{16}1,1/3,,5,{8}3,
{64},,,,,,,,1x/8x,2x/7x,3x/6x,4x/5x,,,,,4x/5x,3x/6x,7x/2x,8x/1x,2x,3x,4x,5x,6x,7x,8x,1x,2x,3x,4x,5x,{16}Cfh[4:1],,,,,1,2,3,
{8}4>1[4:1],8,{16}7,6,{8}5,{16}4<8<4[4:3],,,,,1,2,1,
{8}3,{16}1,3,,1,{8}6b,{16}5>1>5[4:3],,,,,8,7,8,
{8}6,{16}8,6,,8,{8}3b,{16}7,8,6,1,5,1h[16:1],2h[16:1],3h[16:1],
{8}4h[2:1],{16}3,3,,2,{8}2,{16}7,8,6,1,5,8h[16:1],7h[16:1],6h[16:1],
{8}5h[2:1],{16}6,6,,7,{8}7,{16}2,1,3,8,{8}4,2h[32:3],
{16}3h[32:5]/1h[32:5],,,6h[8:1]/8h[8:1],{32},,,7h[8:1]/5h[8:1],,,,,{16}6h[32:23],,,,,2>3<4-2<1<8-2-6[16:3],,,,,,,A6f,
,,1/4,{64}2,3,{32}4,,,{8}8/5,{64}8,7,{32}6,,,{8}5/4,
{64}2,3/1,,,,,,,{8}4/6,{64}5,4,{32}3,,,{8}1>2>3<4<5<6<7>8q8>1q1[8:7],{16}1,2,3,4,,2,3,4,
1,2,3,4,,5,6,7,8,7,6,5,,4,3,2,
,4,3,2,,2,3,4,4,5,3,6,,2,7,1,
8,2,7,3,,6,4,5,1,3,2,5,,8,6,1,
{64}3b,4b,{32}5b,
E
