&title=再会系女子はどうすりゃいいですか?
&artist=えびかれー伯爵/綾瀬理恵
&first=1.11
&des=请设置做谱人編みドーナツ
&lv_5=13
&inote_5=(178){4},6q5[2:1],,,,3p4[2:1],
,,,3qq5[2:1]/6pp4[2:1],
,,,6/2pp8[2:1],
,6-2[4:1],
,{8}7,8,1,2V86[4:1],{4},{8}3,
2,{4}1V35[4:1],5V71[4:1],1-5[4:1],
{1}5>4-6-3-7-2-8>1[8:7],
{4},{16}E2,E3,E4,E5,E6,E7,E8,E1,{4}Cfh[4:1],
,{8}6/5,7,4/3,2,6/5,{16}3,4,
{8}3-7[8:1],3,6-2[8:1],6,3-7[8:1],3,6-2[8:1],6,
8,1,3x/4x,2,5/6,7,3/4,{16}6,5,
{8}6-1[8:1],6,3-8[8:1],3,6-1[8:1],6,3-8[8:1],3,
8,7,6/1,{16}8,7,{8}8,5bh[8:1]/2bh[4:1],,B6/E7/B7,
B3/E4/B4,{16}1,2,{8}1,8/3,4/7,5bh[8:1]/6bh[4:1],,E5/B4/E4,
{4}E7/B6/E6,{8}2,2h[8:1],4,4h[8:1],6,6h[8:1],
8,8h[8:1],{16}1,2,3,4,8,7,6,5,1,2,3,4,
5,6,7,8,{4}6b/1,6,{8}6,1-5[4:1],
{4}6,6,6,{8}6,5-1[4:1],
{4}6,6,6,{8}6,1q5[4:1],
{4}6,6,6,{8}6,5,
{4}4,4/3,3,{8}3,2v5[4:1],
{4}3,3,3,{8}3,5v8[4:1],
{4}3,3,3,{8}3,8p4[4:1],
{4}3,3,{8},{16}6,5,{4}4h[4:1],
,6/5,6/5,{8}6/5,7,
6/5,4,{4}3/4,4/3,{8}4/3,2,
4/3,5,{4}8/7,8/7,{8}8/7,6,
8/7,1,{4}7-5[4:1],{8}8,8-4[4:1],,1,
1,1-3[4:1],,,,7,6/5,2,
3/4,7,6x/5x,4x/3x,2x/1x,8x/7x,,7,
7,7,{4}7-5[4:1],{8}4,4q8[4:1],,1,
1,1v3>2v4[8:7],{1},{4}6<3[2:1],
{8},B3,{4},B6,
6<3[2:1],{8},B3,{4},B6,
7-4[4:1],,2-5[4:1],
,{16}6h[16:3],{8},{16}7h[16:3],{8},8,{4}8/7,
,{8}6/5,6/5,,5h[8:1],6h[8:1],5h[8:1],
6h[8:1],5,4/3,4/3,,{16}4,3,{8}4,2,
3,4,5,5h[8:1],7,7h[8:1],1,1h[8:1],
3,3h[8:1],{4}Cf,Cf/B6f/B2f,Cf/E8f/E4f,
{8},C/B6/B5/E5/B4/B3/E7/E3/B7/B2,,5/6,7-3[8:1],1-5[8:1],7bx,1bx,
,C/B7/E7/B6/B5/B4/E5/B3/E3/B2,,4/3,2-6[8:1],8-4[8:1],2bx,8bx,
,5<8-4[2:1],{4}5,{8}4,4>1-5[2:1],{32},,,5x,{4},{8}6,
{4}6-2[8:1],{8}4pp4[4:1]*qq4[4:1],4,{2},{8}5/6,
{16}2,1,{8}2,{16}7,8,{8}7,6b/1b,
{4}2b/5b,{16}6,5,{8}6,{16}4,7,3,8,{8}2,8b/3b,
{4}7b/4b,{12}8,4x,4x,7,3x,3x,6,2x,2x,
5,1x,1x,{48}8,{24},{48}7,{24},{16}6,5,1,2,3,4,8,7,6,5,
4,3,2,1,{8}3/8-6[32:5],1-3[8:1],8-4[8:1],1-5[8:1],,,,B7/B2/E5/B6/B3/B5/B4/E7/E3/C,
,7/3,{2}7>2<7[4:1]/3p6q3[4:1],
{8},1,{4}1v4>3[8:3],{8}3,3v6[4:1],,6>5v8[8:3],
,8,{4}8>1v4[8:3],{8}6,6,,B6/B7/E7,
{4}B2/E3/B3,{8}7/8,{16}3,4,{8}2,6,{16}8,7,1,6,
{4}2,{8}2/1,{16}6,5,{8}7,{16}3,4,{8}2,{16}6,5,
{8}7,8,{4}8h[2:1],{8},1,{4}1h[2:1],
{8},2,{4}2h[2:1],,3bpp5[4:1],
,{8}8,7,6,5,4/3,{16}6,5,
{8}6v1[8:1],6,3v8[8:1],3,5v2[8:1],5,4v7[8:1],4,
1,8,6/5,4,4/3,5,6/5,{16}1,2,
{4}1-6b[8:1],{8}1-4b[8:1],5,1-6b[8:1],5,1-4b[8:1],5,
,5,6/1,{16}8,7,{8}8,5bh[8:1]/2bh[4:1],,B6/E7/B7,
B3/E4/B4,{16}1,2,{8}1,8b/3b,7b/4b,5bh[8:1]/6bh[4:1],,E5/B4/E4,
{4}E7/B6/E6,{8}2,2h[8:1],4,4h[8:1],6,6h[8:1],
8,8h[8:1],{16}1,2,3,4,8,7,6,5,1,2,3,4,
5,6,7,8,{4}1/6,,7b/3b,
E
