&title=Hydra
&artist=James Landino & Akira Complex
&first=-0.328
&des=Rainflow
&des_6=Rainflow
&clock_count=4
&lv_6=15
&inote_6=(160)
{4},
{4}4b/8<5[4:3],{8},,,,,,,,,,,7/5,
{16},6/4,,,{1}8b/4>1[1:1],
{8},,,,,8/4,{16},3/7,,,{4}6>3[2:1],
2b/6,{8},,,,,,,,,8/1,
{16},1/2,,,{2}6/2>5[8:1],
3/7>2[8:1],
{16}8/4,,,1/5,,,{8}2/6,{16},3/7,,,{4}4/8,
8,6,2/7,1,
1/4,2,{8}6/3,5b,{16},4b,,,{4}6-2[4:1],
2-5[4:1],5-1[4:1],1-4[4:1],
4-7[4:1],7-2[4:1],{8}2-6[4:1],4b,{16},3b,,,,,,,{4}2,
{16}3,2,3,1,3,8,3,7,
{8}3/6,{16}6,5,6,5,6,4,6,3,6,2,{32}6,1,6,1,6,1,6,1,
{16}6/1b,,,2/7,,,{8}8/3,{16}6/1,,,2/7,,,{8}8/3,
{1}3h[4:3],
{4}1,1,{8}1,1,{4}1,
{16}1,1,,1,{8}1,1,1,1,{4}1,
8,8,{8}8,8,{4}8,
{16}8,8,,8,{8}8,{32}8,1,8,1,{8}8,2,{4}2,
6-1[8:1],6b,{8}7/5,6/4,{4}7/5,
{16}7/5,5/7,,4/6,{8}4/6,8/5,3/2,6/7,{4}4/1,
{2}8-4[8:1]/5-2[8:1],6-1[8:1]/7<4[8:1],
{16}6/7,,,4/5,,,{8}3/4,{16},7/2,,,{4}4/8,
{2}6<1[8:1],{8}4/6<1[8:1],5,{16},,,,6/3,
5,,3/6,{8}4,3/6,3>8[8:1]/6<1[8:1],4/5,,,{2}3>8[8:1],
{8}5/3>8[8:1],5,{16},,,,3/6,
3/6,,4/5,{8}5/4,6/3,3>8[8:1]/6<1[8:1],4/5,,,{4}1>4[8:1]/8<5[8:1],
8/1,{16}1,2,1,3,1,4,1,5,
{8}1/6,{16}6,2,6,2,6,3,6,4,6,5,{32}6,7,6,7,6,7,6,7,
{2}7b/6-3[16:1],2-7[16:1]/3-6[16:1],
{16}4/8,,,1/5,,,{8}7/3,{16},2/6,,,{4}8/4,
8-5[4:1],5<8[4:1],8-3[4:1],3>8[4:1],
8-5[4:1],5<8[4:1],8-3[4:1],3-6[4:1],
6>3[4:1],3-8[4:1],8-5[4:1],5-2[4:1],
2<7[4:1],7-2[4:1],{2}2-5[4:1],
{4},3b/6,{16}3,6,3,6,2,7,2,7,
{4}1/8,{16}8,5,8,5,1,4,1,4,{32}2,3,2,3,2,3,2,3,
{2}3b/2-5[16:1],4-7[16:1]/3-8[16:1],
{16}7/8,,,6/1,,,{8}2/5,{16},3/4,,,{4}5b/8b,
{1}6<1[2:7]/2>5[2:3],
,5>2[2:3],
,7-4[2:3]/3-8[2:7],
,4-7[2:3],
{4},,,,3-7[2:3],
5,5h[8:1],2h[4:1],
,5h[4:1],{8},8h[8:1],,,{4}6-2[2:3],
7,4h[8:1],8h[4:1],
,6h[4:1],{8},1h[8:1],,,{4}6-3[2:3],
4,8h[8:1],5h[4:1],
,7h[4:1],{8},4h[8:1],,,{4}2-7[2:3],
5,8h[8:1],3h[4:1],
,1h[4:1],{8},6h[8:1],{16},,,,5/8b,
,,5/8,{8}7/6,{16}6/7,6/7,5/8,,,3/7,{8}4/6,{16}4/6,3/5,
2/4,,,2/5,{8}1/6,{16}1/6,2,5/3,,,3/5,{8}2/6,{32}2,6,2,6,
{16}2/6,,,2/6,{8}3/7,{16}3/7,3/7,3/7,,,3/7,{8}2/6,{16}2/6,2/6,
1/5,,,1/5,{8}4/8,{16}7/3,3/7,{2}3h[16:3]/7h[16:3],
{16}5,4,5,3,5,2,5,1,5,8,5,7,5,6,5,4,
{8}5/3,{16}3,4,3,5,3,6,3,7,3,8,{32}3,1,3,1,3,1,3,1,
{16}1b/3-8[16:1],,,6-2[8:1],,,{8}7-4[8:1],{16}5-1[16:1],,,3-8[16:1],,,{8}8,
{1}2h[4:3],
{16}8/5b,7/4,8/3,1/4,{8}2/5,{16}6,5,4/7,3/6,2/5,1/4,8/3,7/2,{8}6/1,
{16}1/4,2/5,1/6,8/5,{8}7/4,{16}6,7,8/5,1/6,2/7,1/6,8/5,1/6,{8}2/7,
{24}4,4,4,4,4,4,4,5,6,7,{12}8,{24}7,7,7,7,7,7,7,8,1,2,{12}3,
{24}2,2,2,2,2,2,2,3,4/5,5/6,{12}6/7,{24}6,6,6,6,6,6,6,5,4/5,3/4,{12}3/2,
{16}1,2,3/8,2/7,{8}1/6,{16}7/3,6/2,5/1,6/2,7/3,8/4,1/5,4/8,{8}3/7,
{16}5/3,2/4,1/3,7/2,{8}6/8,{16}7/5,4/6,5/7,6/8,5/7,4/6,3/5,4/6,5/7,6/8,
{32}7b,7,7,7,7,7,7,7,7,6/8,5/1,2/4,{8}3,{32}5b,5,5,5,5,5,5,5,5,6,7/3,8/4,,,,,{8}3b/5b,
{32}3/5,2/6,{16}7b/1b,{32},,8/1,7/2,{8}3b/6b,{24}2/6,6/2,6/2,2/6,,,{4}4b/8b,
{16}7b/3,6/4,5,4/6,{8}5/7,{32}2/5,3/6,4/7,5/8,{16}6/7,5/8,4/7,8/5,{32}4/1,2/5,4/3,2/5,{16}1/6,2/7,
3/8,2/7,6/3,4/5,{8}3/6,{32}2/5,3/6,4/7,5/8,{16}6/7,5/6,4/7,3/8,{32}7/4,5/8,4/7,6/3,{16}4/7,5/8,
{24}3,3,3,3,3,3,{32}3,4,5,6,{24}7/8,6/7,5/6,4,4,4,4,4,4,{32}4,5,6,7,{24}8/1,7/8,6/7,
5,5,5,5,5,5,{32}5,6,7,8,{24}1/2,8/1,7/8,6,6,6,6,6,6,{32}6,7,8,1,2,3/4,4/5,5/6,
{4}6-3[16:1]/7-2[16:1],7b/6b,{16}4/5,3/6,4/5,2/7,4/5,1/8,4/5,8/1,
{8}1b/8b,{16}6/5,4/7,4/7,3/8,3/8,2/1,1/2,8/3,8/3,4/1,{32}1/4,2,5,2,4,2,3,2,
2b,2,2,2,2,2,2,2,2b,1,8,7,{8}6b,{32}5b,5,5,5,5,5,5,5,5b,4,3,2/4,1b,3,{16}1,
{32}3b/1b,4/8,{16}7/5,{32}4/8,3/1,{16}4b/8b,{32},,,,3b/6b,4/7,{16}5/6,{32}4/7,4/7,{16}7/4,{8}4/7,{32}4b/7b,3b/6b,2b/5b,1b/4b,,,,,{4}6-3[4:1],
3<6[4:1],6-3[4:1],3-7[4:1],
7-2[4:1],2<7[4:1],{2}7-2[4:1],
{4},7<4[4:1],4-7[4:1],7-3[4:1],
3-8[4:1],8-4[4:1],{2}4>1[4:1],
{4},6<1[4:1],1-6[4:1],6-2[4:1],
2>5[4:1],5-2[4:1],{2}2<7[4:1],
4,2/5,
{16}5/7,,,4/6,,,{8}3/5,{16},2/4,,,{4}1h[8:1]/3h[8:1],
6<1[8:1],2>5[8:1],7>2[8:1],3<6[8:1],
8>3[8:1],4<7[8:1],1>4[8:1],5<8[8:1],
7-4[8:1],3-8[8:1],6-3[8:1],2-7[8:1],
5-2[8:1],1-6[8:1],4-1[8:1],8-5[8:1],
{16},,,,4b,4,4,4,4,4,4,4,4,4,4,4,
{4}4b,{16}5,5,5,5,5,5,5,5,{32}5,5,5,5,5,5,5,5,
{2}5-1[16:1],6-3[16:1]/2<7[16:1],
{16}6-2[16:1],,,5-1[16:1],,,{8}4-8[16:1],{16},3-7[16:1],,,{4}5-8[4:7]/4-1[4:7],
{1}5b/4b,
E
