&title=INSIDE IDENTITY (TV size)
&artist=Black Raison d'ĂȘtre
&first=0.07
&des=tdfmb
&lv_5=13+
&inote_5=(186){4},2,2,{8}2,{32}2x,3x,4x,5x,
6x,7x,8x,1x,{8}2x,{4}4bx/6b<1[8:1],{8},2b<6[16:3],{4},{8}5bpp4[4:1],
{4},{8}1b-5[8:1],{4},6b-8[8:1],
2/6b,{8}3/4,7,6/5,1h[4:1],,5<4[4:3],
,{32}1,2,3,4>5[32:13],{4},,,E5f/B4/B5/A5/A4,
{8}4/7,6,5,6/4,5,3,
4/2,5,4,8/2,1,6,2,2,
5/3,5,4,6,{16}7/8,1,2,3,{8}4,4qq5[16:5],
7,4,{4}8h[4:1],{16}A6,A7,A8,A1,{4}A2/A6/E6/B6f,
7b/B3f/E4/A3,{8}7,5/6,4,3/5,2,2h[4:1]/6p4[8:3],
,6b,,3,2,1,8-4[8:1],8,
7x,6,6x-4[8:1],3x,6x,2-8[8:1],3,2,
6-1[8:1],5-3[8:1],6,5,{16}8x,7x,6x,5x,{8}4x/2x,1-4[8:1],
{4},6h[4:1],8,{8}6,6h[8:3],
{4}4,{8}8-4[8:1],8,{4}6,3h[4:1],
4,2/4-1[8:1],3,{8}3,3h[8:3],
{4}8,{8}6,5,{4}7/4,8-5[8:1],
4,3h[4:1],1,{8}3,3h[8:3],
{4}5,{8}1-5[8:1],1,{4}3,6h[4:1],
5,{16}4x/7,3x,2x,1x,{8}7xh[8:1],{16}8x,1x,2x,3x,{8}6xh[8:1],
{16}4x,3x,2x,1x,7x,6x,5x,4x,{8}2-8[8:1],2,7-5[8:1],7,
{16}8,1,2,3,{4}4>2[8:1],6,{8}1-4[8:1],1,
{4}5,5v3<4-2[8:3],{8}6,6,{4}7-5[8:1],
{8}7,3,{4}2<8[8:1],7,{8}6<8[8:1],6,
{4}3,2>4qq5[8:3],{8}5,6,{4}7b-3[8:1],
7,5>2[8:1],7,{8}1q5[8:1],1,
{4}8,7qq4[8:3],4,2<7[8:1],
2b/5b,{8}6/4,6,6/2,6,{16}1,2,3,4,
5/8,7,6,5,{8}4/1,2,3,4,5/7,8,
,{24}8x/2,7x,6x,{4}5>2[8:1],7/5x<7[8:1],5x/1V38[4:1],
{8}8>6[8:3],8,,7xh[4:1],{4},5x-2[8:1]/8x-4[8:1],
8/5,{8}1b,7x,6/4,8b,3xqq5[4:1],{16}15,,
{8}3b,{4},{8}8x,{16}5x,4x,3x,2x,{8}1x/7x,7x/1<3[8:3],
,1/2,{4},1-5[8:1],1/6-1[8:1],
6/3-5[8:1],3/7h[2:1],{8}6,6,{16}1,2,3,4,
5/8,7,6,5,2,4,2,4,{4}1b,{16}6,5,6,5,
{8}8b,2,3x/4x,6x,7x/1x,{24}1bx,2x,3x,{8}4x,{24}7bx,6x,5x,
{8}4x,{24}1x/7,2x,3x,{4}4<7[8:1],2/4x>2[8:1],4x/8V61[4:1],
{8}1<4[4:1],1,,2xh[4:1],{4},4x-7[8:1]/1x>4[8:1],
1/4,{8}8b,2x,3/4,1b,6xqq7[4:1],{16}84,,
{8}6b,{4},{8}4x,{16}8x,7x,6x,5x,{4}4x/2-5[8:1],
2/7>5[4:1],7/4,{8}1,1,{16}2/4,5,6,7,
{8}8/2,7qq4[8:3],{8}4x/7x,,4<1[8:3],4x,{32},,,,,,,,2
,,,,,,,,{8}2x,3x,6x/4x,7x,,7x/5x,
6x,4x/3x,{4}1b-5[8:1],,
{8}7,4-8[8:1]/7-5[8:1],,4/7-3[8:1],,1/7,2-4[8:1],,2-8[8:1],5,
2,,1-5[8:1]/7-5[8:1],,17,,2-4[8:1]/8-4[8:1],,
28,,6-1[8:1],2,6,3,8-4[8:1],2,
8,,1-4[8:1]/5-7[8:1],,1/5-2[8:1],,5/7V13[4:1],,
3V57[4:1],,5,,2-8[8:1],,2-4[8:1]/5-7[8:1],,25,,8-4[8:1],
{16}4,,8,,3,2,1,8,7,6,5,4,3,2,
{8}17,6,28,3,46,7,35,2,
{32}1x-5[8:1],2x,3x,4x,5x,6x,7x,8x,
{8}1xb/5x,,2,5-1[8:1]/2-4[8:1],,5/2-6[8:1],,8/2,7<5[8:1],,7-1[8:1],4,
7,,8-5[8:1]/2-5[8:1],,82,,7-4[8:1]/1-4[8:1],,
71,,3v8[8:1],7,3,6,1-5[8:1],6-8[8:1],
1,6,4-2[8:1],,8/4-7[8:1],,4/2V86[4:1],,
6V42[4:1],,4,,7-1[8:1],,7-5[8:1]/4-2[8:1],,7/4-8[8:1],,1-5[8:1]/4,1,7,7,3,3,
{16}8,7,6,5,4/1bx,2x,3x,4x,6xh[8:1],,4bx,3x,2x,1x,7xh[8:1],,
{16}2bx,3x,4x,5x,1x,8x,7x,6x,4x,3x,2x,1x,
{24}4x,3x,2x,1x,8x,7x,6x,5x,4x,3x,2x,1x,
{8}8bx-4[8:1],3,8,3b>8[8:1],5,3,6b>4[8:1],2,6,1b-5[8:1],6-8[8:1],1,6b-4[8:1],2,6b,2,
1bx-5[8:1],6,1,6b<1[8:1],4,6,3b<5[8:1],7,3,8b-4[8:1],3-1[8:1],8,3b-7[8:1],7,3b,6,
5bx-1[8:1],2,5,2b>5[8:1],8,2,7b>1[8:1],3,7,4b-8[8:1],7-5[8:1],4,7b-3[8:1],3,7b,,1b,35,8b,4/6,,
{32}8b-4[8:1]/E4b,B4b,B5b,E6b,,,,,8b/4bw8[2:1],,
