&title=《偏愛》 ~ Shattered Memories
&artist=3R2
&first=0
&des=暁
&lv_5=14
&inote_5=(170)
{1},,
{16},,,,,,,,,,,,,,4,5,
6h[2:1],,,,,,,,5h[2:1],,,,,,,,
4q7[2:3],,,,,,,,,,,,3,,,,
3,,,,,,2,,,,,,1,,,,
1q4[2:3],,,,,,,,8,,,,7,,,,
6h[1:1],,,,,,,,,,,,,,,,
5h[1:1],,,,,,,,,,,,,,,,
{32}3,4h[32:31],{16},,,,,,,,,,,,,,,
{1}3q5[4:9]*qq4[4:9],,{16},,,,,,,,,,,,6b<3[1:3],,,,
{1},,{16},,,,,,,,,,,,6h[16:1],,6h[16:1],,
5,,5,,,,5,,5,,,,5,,5,,
{1}3>6[4:11],,,
{16}4h[1:1],,,,,,,,5-8[8:1],,,,,,,,
7,,6,,5-8[8:1],,4,,3,,3,,1,,2,,
7,,6,,5-8[8:1],,4,,3,,3,,1,,2,,
7,,6,,5<8[8:1],,4,,3,,3,,1,,2,3,
7,,6,,5<8[8:1],,4,,3-6[8:1],,3,,2,,2,,
2,,3,,4-1[8:1],,5,,6,,6,,8,,7,,
2,,3,,4-1[8:1],,5,,6,,6,,8,,7,,
2,,3,,4>1[8:1],,5,,6,,6,,8,,7,,
6,,6,5,6,5,6,,6h[16:1]/5h[16:1],,6h[16:1]/5h[16:1],,6h[16:1]/5>3[8:1],,6h[16:1]/5h[16:1],,
7,,6,,5,,4h[8:3],,,,,,5,,,,
7,,6,,5-3[8:1],,4h[8:3],,,,,,3,,,,
7,,6,,5-2[8:1],,4h[8:3],,,,,,3,,,,
1qq5[4:3]/2,,,,,,3,,,,,,4,,,,
3,,4,,5,,6h[8:3],,,,,,5,,,,
6,,5,,4-1[8:1],,3h[8:3],,,,,,,,,,
2,,3,,4-7[8:1],,5h[8:3],,,,,,,,,,
8V24[4:2]*V64[4:2],,,,,,,,,,,,,,,,
2,,3,,4,,5,,6h[4:1],,,,7,,,,
2,,3,,4-6[8:1],,5h[8:3],,,,,,7,,,,
2,,3,,4-7[8:1],,5h[8:3],,,,,,7,,,,
8pp4[4:3]/7,,,,,,6,,,,,,5,,,,
6,,5,,4,,3,,5h[8:2],,,,4,,,,
3,,4,,5-8[8:1],,6h[8:3],,,,,,,,,,
7,,6,,5-2[8:1],,4h[8:3],,,,,,,,8,2,
1V75[4:2]*V35[4:2],,,,,,,,,,,,,,,,
3-8[4:2]/4,,,,,,,,1-6[4:2],,,,,,,,
7-4[4:2],,,,,,,,5-2[4:2],,,,,,,,
3,,,,,,4,,,,,,5qq2[4:4],,,,
6h[2:1],,,,,,,,,,,,6,,7,,
8<5[2:1],,,,,,,,2<7[2:1],,,,,,,,
4>1[2:1],,,,,,,,6>3[8:4],,,,,,,,
8z4[4:3],,,,,,,,4,,,,6,,,,
2s6[4:3],,,,,,,,,,,,7,,7,,
8-4[2:1],,,,5,,,,3,,,,3,,,,
2-6[2:1]/4,,,,5,,,,7,,,,7,,,,
5/8h[4:1],,,,5,,7h[4:1],,5,,,,6h[4:1]/5,,,,
4-8[8:1],,,,5,,,,1-3[8:1]/5,,,,5,,,,
5-7[8:1]/4,,5,,3-6[8:1],,3,,8-4[8:1],,8,,5,,3,,
1-3[8:1],,1,,7-2[8:1],,7,,4-8[8:1],,4,,1,,7,,
6,1,5,2,4,3,1,2,8,3,7,4,6,5,7,8,
6<1[8:2],,,,,,,,2,,2>4[8:1],,,,5,6,
7-3[8:1],,65,,7,,2,2,4,3,3,,6<1[8:1],5,7,5,
6,,2,,34,,5,5,4,6,6,,3-1[8:1],4,2,4,
3,,7,,86,,1,1,8,2,2,,7,3,6,4,5V31[8:3],,,,1,,1V75[8:3],,,,5,,5,,,,
2-6[8:1],,34,,2,,7,7,5,6,6,,3>8[8:1],4,2,4,
3,,7,,65,,4,4,5,3,3,,6-8[8:1],5,7,5,
6,,2,,13,,8,8,1,7,7,,2-6[8:1],6,3,5,,,,,48,,2-5[8:1]/6-1[8:1],,,,26,,,,,,
7-3[8:1],,65,,7,,2,2,4,3,3,,6<1[8:1],5,7,5,
6,,2,,34,,5,5,4,6,6,,3,4,2,4,
3>8[8:1],,4,,5,,6>3[8:1],,7,,8,,1-5[8:1],,2,,
3-8[8:1],,3,,4,,6-1[8:1],,6,,5,,4-8[8:1],,,,
2-6[8:1]/4,,3,,2,,7,7,5,6,6,,3>8[8:1],4,2,4,
3,,7,,65,,4,4,5,3,3,,6-8[8:1],5,7,5,
6,,2,,31,,8,8,1,7,7,,2-6[8:1],6,3,5,
4<3[2:1],,,,,,,,4h[4:1],,,,,,,,
6,5,6,3,4,3,5,4,5,6,7,2,3,4,56,,
3,4,3,6,5,6,4,5,4,3,2-5[8:1],15,6,7,82,,
6,7,8,3,4,5,8,4,7,6,5-1[8:1],48,1,2,35,,
4-7[8:1],,6,3,4,2,2,,6,5,4,8,1,2,7,3,
6,4,5,3,5,4,6,3,7,6,5-8[8:1],1,2,3,45,,
2,1,2,8,1,7,8,7,1,4,3,8,5,6,2h[8:1],,
4,3,7,5,6,2,5,4,6,5,3,4,7,6,2,3,
84,,65,,3/4-8[8:1],,15,,,,1h[8:1],,7,,2,6,
3,4,3,6,5,6,4,5,4,3,2,7,6,5,43,,
6,5,6,3,4,3,5,4,5,6,7-4[8:1],84,3,2,17,,
3,2,1,6,5,4,1,5,2,3,4-8[8:1],51,8,7,64,,
5-2[8:1],,3,6,5,7,7,,3,4,5,1,8,7,2,6,
3,4,3,5,4,6,5,6,74,,7-4[8:1],8,,8,7,,
1,2,3,5,6,7,4,3,26,,2-5[8:1],1,,1,2,,
8,7,6,5,48,1,2,3,84,,7-4[8:1],5,,5,7,,
1,2,3,4,15,48,37,26,15,,3,,84,,6,,
51,2,63,4,57,6,7,8,16,2,37,4,58,6,71,8,
{32}1,2,3,4,5,6,7,8,1,2,3,4,5,6,7,8,{8}15,37,4<7[8:1]/8>3[8:1],26,
8bpp5[4:15]/4bpp1[4:15],
