&title=Gate One
&artist=aran
&first=0.07
&des=Traxeri
&demo_seek=22
&demo_len=13
&lv_5=13+
&inote_5=(180)
{2},Chf[2:1],1b>2>2z6z2[2:7]b,,,,,,,,{8}5,,3,4,3,,6,5,6,5,7h[2:1],,,,6,5,46,,3,4,3,,5,4,5,4,6<1-5[4:1],,,3,3,,2bh[4:1]/4bh[4:1],,,3h[8:1]/5h[8:1],,4,46,,7bh[4:1]/5bh[4:1],,,6h[8:1]/4h[8:1],,5,53,2,2bh[4:1]/4bh[8:1],,4,5h[8:1]/3h[4:1],,5,64,7,7bh[4:1]/5bh[8:1],,5,4h[8:1]/6h[4:1],,4,35,,3,4,3,5,3,4,B2/E3/A2,,6,5,6,4,6,5,B7/E7/A7,,{16}4x,5,4,5,4,5,4,5,3x,4,3,4,3,4,3,4,{4}2>6[4:1],6V84[4:1]b,,,{8}6b/2bV46[4:1],,7,8h[4:1],,1,28,,34,2,35,6,7<4[8:1],7,4,3,2-8[8:1],,4,5,5h[8:1],1x,1x,2,3b/5b,6,7b/5b,8b-4<6[4:1]/4b,,3bxh[8:1],,2bx,,71,7x/1x,6,45,3,42,3,4-8[8:1],,7-5[8:1],7,2,,3,4,5<8[8:1],2,3,4,5-3[8:1],7,5,,6bx/2bx,26,7bx/3bx,73,8bx/4bx>3-8[8:1],,,,1b/7b,6,54,3,42,1,24,5,6-2[8:1],,3-5[8:1],3,7,8,7,6,5-3[8:1]/3,,2,1,1>4[8:1],,8,7,6,5,4/6h[4:1],{40}D4,A3,D3,A2,D2,{16}A1f,,,2x/4x,,,{24}5,4,6,{8}5<8[8:1]b,,5b/4b,,3,3,24,5,47,6,51,2,3-8-2[8:1],3,5,,{16}6x,4,6,4,7,5,7,5,6,4,5,3,6,2,7,1,{24}8,7,6,5,4,3,2x,1,8,7,6,5,{60}A1,D2,A2,D3,A3,D4,A4,D5,A5,A6,D6,D7,A7,D8,A8,{8}D1/Cf,,5bh[4:1]/2bh[4:1],,,3,4bh[4:1]/6bh[4:1],,,5,46,3,2V84[4:1]/4h[8:1],,5h[8:1],,6h[8:1],,47,6,56,{16}4,5,{8}3>7[8:1],3,5,,64,5,43,2,1-5[8:1],5-3[8:1],1bx,,7bh[4:2],,5>3[8:1],,,,6b/2b,{16}4,5,{8}3,2,15,6,57,{16}6,5,{8}8,71,2b/6b>1[8:2],,E3f,,,,35,4,5b-2[8:1],6,5,8,8b-4[8:1],1,8,3,3,{16}2,4,2,,35,,{8}6h[8:1],4,7h[8:1],5,8h[8:1],2,7h[8:1],1,6h[8:1],4,3x/5x,6x,7x-2[8:1]/5xh[8:1],,5h[8:1],,1-5[8:1]/4h[8:1],,4h[8:1],,3x-8[8:1]/6xh[8:1],,6h[8:1],,{16}7h[16:2]/5h[16:2],,,6h[16:2]/4h[16:2],,,3b/5b,,{16}2x,4,,4,6,,6,8h[16:2],,1,8,,71,,62,,7x,5,,5,3,,3,1h[16:2],,8,1,,82,,73,,3b,4,2,4,1h[8:1],,6b,5,7,5,8h[16:1],,2b,4,3,5,2,3,4,5,6,7,8,1,{32}2`A6,D6,A5,D5,A4,D4,A3,D3,A2,D2,A1,D1,A8,D8,A7,D7,{2}A6f/2bx>4qq1qq5<4[4:15],,,,,,,,{4}7h[2:1],6,5,{8}4,4,5h[2:1],,3h[4:1],,,,2,,2h[4:2],,3,,4h[4:1],,3,5,4,4,7-3>2-6[8:3]b,,,,,,1b,,3,4,3h[4:1],,5,4,6,,6-4>3[4:1],,B2/B3,,,,2,,8,1,7h[4:1],,5,5,6,,6<7-1[4:1]b,,A3/E3,,4x,,4x,,3,3,42,,B1/E2,,54,,6,6,57,,E8/B8,,{4}4bx/6bx,4,4/B7,4/B6,5bx/3bx,5,5/B2,5/B3,{8}2,2,4,4,6,6,8,8,57,5,46,4,53,5,42,4,{16}3x,5,3,5,4,6,4,6,3x,7,3,7,2x,6,2,6,1,2,3,4,51,8,7,6,5/1-5-1[8:1],,1,,,,,,{8}7bh[2:3],,B6/A6,,,,E5/D5,,,,B3/A3,,,,8x,71,6x/2x>4[8:1],5,2,6,5-1[8:1],7,5,8,28,6,54,3,2-8[8:1],4,2,,6,7bx/5bx,7bx/5bx,4,53,2,34,5,6<8[8:1],5,6,4,1-5[8:1],3,1,4,46,7,18,{16}3,4,2,,8,1,{8}7bx,6bx/4bx,5bx-1[8:1]/3bx-8[8:1],,5b/3b,,8bx-4[8:1]b/2bx-5[8:1]b,,8b/2b,,73,6,53,2,81,2,13,4,6>4[8:1],2,6,1,1-5[8:1],7,1,8x,8x,7,64,{16}3,4,2,,6,5,{8}7<4[8:1],8,17,2,3bh[4:1],{48}A5,D6,A6,D7,A7,D8,{16}A8f,,,1bx/2bx,,,{16}3,4,{4}3bh[8:1],3h[8:1],5h[8:1]/4h[8:1],5h[8:1]/4h[8:1],5h[8:1]/6h[8:1],5h[8:1]/6h[8:1],6h[8:1]/4h[8:1],6h[8:1]/4h[8:1],{16}E1,E2,E3,E4,E5,E6,E7,E8,D1,D2,D3,D4,D5,D6,D7,D8,D1/5xv2[8:1]*v8[8:1],,,,5b,,,,1x<6[8:1]b*>4[8:1]b,,,,1bx,,,,{8},3bx/7bx,3bx/7bx,2,17,6,35,{16}2,1,{8}2>5[8:1],5-1[8:1],2,8,7,6,53,6,7-5[8:1],5,7,4,4-8[8:1],5,4,6,6-8[8:1],3-5[8:1],6,3,1>4[8:1]*<6[8:1],,,,37,2,18,7,64,7,54,3,2>5[8:1],1,2,8,8-4[8:1],1,8,2,53,6,75,8,71,6,45,4bx/2bx,4bxh[4:1]/2bx-8<7-3[2:1],,,,4x-6[8:1],,4x,,7b/1b,8,12,3,4>1[8:1],5,4,6,8-4[8:1],7,8,6,6<1[8:1],,65,4,4-2[8:1],1,4,8,8<5[8:1],2,8,1,1bw5[8:1]b,,,,7b/3b,8,1,8x/2x,8bx/2bx,3,4,42,6,75,6,53,53,4,3,{16}2,4,2,,8,1,,6,5,,7,4,7,4,6,4,6,4,5,3,5,3,6,2,7,1,{32}8x,7,6,5,4,3,2,1,8,7,6,5,4,3,2,1,{16}8bh[16:2]/4bh[16:2],,,3b>2-8[8:1]b/7b<6-4[8:1]b,,,2x/6x,
