&title=グーテンベルクの科学世紀- (原曲-衛星カフェテラス)
&artist=minimum electric design
&first=0
&des=Tane
&lv_4=10
&lv_5=13+
&inote_4=(162){1},
{8},,,,
{8}3h[8:2],,,,
6h[4:1],,,,
{8}2h[8:2],,,,
7h[4:1],,,,
{8}3h[8:2],,,,
6h[4:1],,,,
{8}2h[8:2],,,,
7h[4:1],,,,
{8}3,,3,,
6,,6,,
{8}1,,28,,
37,,,,
{8}5,,5,,
4,,4s8[8:3],,
{8},,,,
5,,6,,
{8}7-3[8:1],,5,,
2-5[8:1],,6,,
{8}8-4[8:1],,8^5[8:1],,
,,,,
{8}3-1[8:1],,5,,
6-1[8:1],,5,,
{8}4-1[8:1],,8-4[8:1],,
,,,,
{8}2-6[8:1],,4,,
7-4[8:1],,3,,
{8}1-5[8:1],,1^4[8:1],,
,,,,
{8}6-8[8:1],,4,,
3-8[8:1],,4,,
{8}18,,,,
45,,36,,
{8}1,,1,,
7,7,,2,
{8},3,4,3,
,B5,B5,,
{8}8,,8,,
2,2,,6,
{8},7,5,8,
,E2,E2,,
{8}18,,18,,
2,2,,6,
{8},2,4,3,
,,6,,
{8}8^5p4^1[4:6],,,,
,,,,
{8},,,,
,,,,
{8}3,3h[8:5],,,
,,,,
{8}5,5h[8:5],,,
,,,,
{8}4,4h[8:5],,,
,,,,
{8}6,6h[8:5],,,
,,,,
{8}1,1h[8:5],,,
,,,,
{8}8,8h[8:5],,,
,,,,
{8}4,4h[8:2],,,
5,5h[8:3],,,
{8}1,,,8,
,1,8,,
{8}4,4p2[4:3],,,
,,,,
{8}7h[4:2],,,,
,,,,
{8}1,1q3[4:3],,,
,,,,
{8}8h[4:2],,,,
,,,,
{8}2,2q4[4:3],,,
,,,,
{8}7h[4:2],,,,
,,,,
{8}4,4h[8:2],,,
8,8h[4:1],,,
{8}1,1-5[4:2],,,
,,,,
{8}6h[4:1],,5,,
{16}6,,5,,
6,,,,
{8}3h[4:1],,4,,
{16}3,,4,,
3,,,,
{8}7h[4:1],,8,,
{16}7,,8,,
7,,,,
{8}2h[4:1],,1,,
{16}2,,1,,
2,,,,
{8}7h[4:1],,5,,
{16}7,,5,,
6,,,,
{8}2h[4:1],,4,,
{16}2,,4,,
3,,,,
{16}1x,,,E3,
,,E7,,
8xb,,,E7,
,,E3,,
{8}1xb,,,,
45,,45,,
{8}7-3[8:1],,5,,
2-5[8:1],,6,,
{8}8-4[8:1],,8^5[8:1],,
,,,,
{8}3-1[8:1],,5,,
6-1[8:1],,5,,
{8}4-1[8:1],,8-4[8:1],,
,,,,
{8}2-6[8:1],,4,,
7-4[8:1],,3,,
{8}1-5[8:1],,1^4[8:1],,
,,,,
{8}6-8[8:1],,4,,
3-8[8:1],,4,,
{8}18,,,,
45,,36,,
{8}7^4[8:1],,3,,
2-6[8:1],,5,,
{8}8-3[8:1],,8^5[8:1],,
,,,,
{8}2-5[8:1],,6,,
7-3[8:1],,2,,
{8}3-1[8:1],,4-7[8:1],,
,,,,
{8}2^5[8:1],,6,,
7-3[8:1],,4,,
{8}1-6[8:1],,1^4[8:1],,
,,,,
{8}7-4[8:1],,3,,
2-6[8:1],,7,,
{8}18,,,,
45,,36,,
{8}8,,8,,
2,2,,7,
{8},6,5,6,
,B4,B4,,
{8}1,,1,,
7,7,,3,
{8},2,4,1,
,E8,E8,,
{8}81,,81,,
7,7,,3,
{8},7,5,6,
,,3,,
{8}1^4q5^8[4:6],,,,
,,,,
{8},,,,
,,,,
{8}7h[8:7],,,,
,,,5p2[4:2],
{8},,,,
,,,,
{8}2h[8:7],,,,
,,,4q7[4:2],
{8},,,,
,,,,
{8}8h[8:7],,,,
,,,1q4[4:2],
{8},,,,
,,6,,
{8}8<1[8:12],,,Ch[8:11],
{8},,,,
,,,,
&inote_5=(162){1},
{8},,,,
{8}3,4/3h[8:2],,,
6,6h[4:1]/5,,,
{8}2,4/2h[8:2],,,
7,7h[4:1]/5,,,
{8}3,4/3h[8:2],,,
6,6h[4:1]/5,,,
{8}2,4/2h[8:2],,,
7,7h[4:1]/5,,,
{8}4,,45,,
3,,34,,
{8}3,3,4^6[8:1],,
3,,2,,
{8}5,,54,,
6,6,5/6s2[8:3],,
{8},,,,
4,4,5,6,
{8}7-3[8:1],,4-1[8:1],4,
5-8[8:1],5,3,2,
{8}1-5[8:1],,8-4[8:1],,
3-7[8:1],,,5,
{8}4-8[8:1],,6-1[8:1],6,
5-1[8:1],5,7-4[8:1],7,
{8}3^8[8:1],,6^3[8:1],,
8^3[8:1],,,7,
{8}2-6[8:1],,5-8[8:1],5,
4-1[8:1],4,6,7,
{8}8-4[8:1],,1-5[8:1],,
6-2[8:1],,,4,
{8}5-1[8:1],,3-8[8:1],3,
4-8[8:1],4,2<4[8:2],2,
{8}8,,,,
4^1[8:1]/5^8[8:1],,,,
{8}8-4[8:1],,8,,
3^8[8:1],,6,5^8[8:1],
{8},4,3,2^5[8:1],
,8,8,,
{8}1-5[8:1],,1,,
6^1[8:1],,3,4^1[8:1],
{8},5,6,7^4[8:1],
,1,1,,
{8}8-4[8:1]/1-5[8:1],,18,,
3^6[8:1],,8,1^6[8:1],
{8},5,4,3,
,,6,7,
{8}8^5p4^1[4:4],,,4,
,,8,8<1[4:3],
{8},,,,
,,,,
{8}3,3h[8:5],C,B3,
,,,,
{8}5,5h[8:5],C,B5,
,,,,
{8}4,4h[8:5],C,B7,
,,,,
{8}6,6h[8:5],C,B1,
,,,,
{8}1,1h[8:5],C,B7,
,,,,
{8}8,8h[8:5],C,B2,
,,,,
{8}4,4h[8:2],C,B7,
5,5h[8:3],C,,
{8}1,1h[8:2],C,E1,
,C,E5,,
{8}4,4p2[4:2],C,B7,
,,,,
{8}7,7p5[4:2],C,B3,
,,,,
{8}1,1q3[4:2],C,E6,
,,,,
{8}8,8p6[4:2],C,B2,
,,,,
{8}2,2q4[4:2],C,E1,
,,,,
{8}7,7p5[4:2],C,E1,
,,,,
{8}4,4p2[4:2],,,
8,8p6[4:2],,,
{8}1,1q4[4:2],,,
,,,,
{8}34,3h[8:3]/4,C,,
{16}4,,4,3,
25,,,,
{8}65,6h[8:3]/5,C,,
{16}5,,5,6,
74,,,,
{8}24,3h[8:3]/4,C,,
{16}4,,5,3,
26,,,,
{8}75,6h[8:3]/5,C,,
{16}5,,4,6,
73,,,,
{8}15,3h[8:3],C,,
{16}4,,4,2,
15,,,,
{8}84,6h[8:3],C,,
{16}5,,5,7,
84,,,,
{16}1xb^4q5^8[4:4],,,E3,
,,E7,,
8xb,,,E7,
,,E3,,
{8}1xb,,,,
4,3,5,6,
{8}7-3[8:1]/3,,3-6[8:1],1,
6-2[8:1],8,2-7[8:1],1,
{8}8-4[8:1],,8-6[8:1]/1-5[8:1],,
,,,5,
{8}4-8[8:1]/7,,5-1[8:1],6,
4-8[8:1],3,5-1[8:1],6,
{8}3^8[8:1],,6^3[8:1]/3,,
8^3[8:1]/6,,,7,
{8}2-6[8:1]/6,,6-3[8:1],8,
3-7[8:1],1,7-2[8:1],8,
{8}1-5[8:1],,1-3[8:1]/8-4[8:1],,
,,,4,
{8}5-8[8:1]/2,,4-1[8:1],3,
5-8[8:1],6,2>7[8:2],1,
{8}82,,,,
34,2,56,7,
{8}8-4[8:1]/4,,4-7[8:1],2,
7-2[8:1],8,2-5[8:1],1,
{8}8-4-1[4:1],,8-6[8:1]/1-5[8:1],,
,,,5,
{8}4-8[8:1]/7,,6-1[8:1],7,
5-1[8:1],3,7-4[8:1],8,
{8}3^8^3[4:1],,6^3[8:1]/3v8[8:1],,
,,,7,
{8}1-5[8:1]/5,,5-2[8:1],7,
2-7[8:1],1,7-4[8:1],8,
{8}1-5-8[4:1],,1-3[8:1]/8-4[8:1],,
,,,4,
{8}5-1[8:1]/2,,3-8[8:1],2,
4-8[8:1],6,2-4-1-5[8:3],1,
{8}82,,,,
4^1[8:1]/5^8[8:1],,,,
{8}1-5[8:1],,15,,
6/4^1[8:1],,6,7^4[8:1],
{8},8,1,2^7[8:1],
,5,5,,
{8}8-4[8:1],,84,,
3/5^8[8:1],,3,2^5[8:1],
{8},1,8,7^2[8:1],
,4,4,,
{8}1-5[8:1]/8-4[8:1],,81,,
6^3[8:1]/3,,2,1^6[8:1],
{8},6,5,4,
,,3,2,
{8}1^4q5^8[4:4],,,5,
,,1,1^4[4:1],
{8},,,,
5,,6,,
{8}7,,7,,
7,C,7,B2,
{8}7,,7,,
7,C,7,8,
{8}2,,2,,
2,C,2,B7,
{8}2,,2,,
2,C,2,1,
{8}8,,8,,
8,C,8,B5,
{8}8,8z4[4:2],E3,E7,
,,3,2,
{8}1,C,1,B4,
1^4q5^8[8:10],,C,Ch[8:9],
{8},,,,
,,,,
