&title=Butter-Fly
&artist=和田光司 [cover]
&first=0
&des=Rayton
&lv_6=12+
&inote_1=
&inote_2=
&inote_3=
&inote_4=
&inote_5=
&inote_6=(165.1){4},,,,{2}1>4[8:1],
8<5[8:1],
{1}1-5qq3[2:1]*-5pp7[2:1],
{2}4<7[8:1],5>2[8:1],
{1}1xpp8[2:1]/5xpp4[2:1],
{8}5h[4:1]/2h[4:1],{16},,,,4,2,5,3,{8}6,{4}4/7<1[8:3],
4h[2:1],,,7b/4,
{8}8h[4:1]/3h[4:1],{16},,,,1,3,8,2,{8}7,{4}6/1<3[8:3],
5h[2:1],,,2b/5,
{8}7h[4:1]/4h[4:1],{16},,,,7,6,{8}3/5<1[4:1],2,{4}1>7[2:1],
4qq4[8:3],,,8b,
4h[4:1]/7h[4:1],{8},{16}7,6,{8}2/5<1[4:1],3,{4}4,
{8}4qq4[8:3],4,8,8,7,7,{16}6,4,6,4,
{8}6b,3,27,,{4}1h[8:1]/8h[8:1],{8}18,1,
17,,38,,73,,45,{16}4,5,
{8}4,6,47,,{4}3h[8:1]/6h[8:1],{8}7/1,,
26,,18,,27,{16}2,7,{8}2,{16}6,3,
{8}6,4,37,,18,,27,,
1h[4:1],,7,8h[4:1],,1,27,6/3,
{4}5/4>1[8:1],{8}4,5,6-8[8:1],5,4,3-1[8:1],
,3,4,5h[4:1],1,2,{4}3b,
{8}6/4,6,6/4,6,6/3,6,6/3,6,
2/6,7b,2b-5[8:1],7-4[8:1],2b,7b,,2,
3/8,3,3/8,3,3/7,3,3/7,3,
6/3,2b,7b-4[8:1],2-5[8:1],7b,2b,,8,
1/3,2,2,2,6/8,7,7,7-5[8:1],
,1,2,3-1[8:1],,5,6,7,
{4}1/8<5[8:1],{8}8,1,2-4[8:1],1,8,7-5[8:1],
,7,8,1h[4:1],8,7,{4}6b,
{24}7b/1b,2x,{12}3x,{24},,8b/2b,3x,{6}4x,{24}3b,4x,{12}5x,{24}7b,6x,{24}5x<4[8:3],,,
{8}Cf,,,,,,7h[8:1],1,3,
{4}5<1[4:1],1>5[4:1],5<1[4:1],1>1[2:1]*>1[2:1],
{8}Cf,,,,,2x,3x,4x,
{24}2b/8b,7x,{12}6x,{24},,1b/7b,6x,{6}5x,{24}6b,5x,{12}4x,{24}2b,3x,{24}4x>5[8:3],,,
{8}Cf,,,
{4},,1-5[8:1],
{8}5,6,7,8-6[8:1],,5,4,3-5[8:1],
,6,7,8-2[8:1],,3,4>6[8:3],5,
{1}Cf,
1bxs5b[8:1],
{4}5b/2bV48[4:1],{8}2,6V82[4:1],,6,{4}5-2[8:1],
7-4[8:1],{8}1,1V35[4:1],,5,6>1[8:3],7,
{4}Cf,{8},,,,7,6,
3/5,4-2[8:1],,4,5,6,7/2,8h[4:1]/3h[4:1],
,,,1h[8:1]/8h[8:1],,2/7,2/7,3b-1[8:1],
3,5b-7[8:1],5,4bp3[4:1],,8,{4}8,
{8}7x,6h[8:1],8,5h[8:1],1,4h[8:1],2,3h[8:1],
1,1,8/1,1/8,{16}2,7,2,7,2,7,{8}2,
{4}6b/3bpp5[4:1],{8}5>1[4:1],5,,7,{4}7,
6q4[4:1],{8}4<8[4:1],4,,3,2>8[8:3],1,
{4}Cf,{8},,,,6,6h[4:1],
2,1-3[8:1],,1,8,7,6/3,5h[4:1]/2h[4:1],
,,,1>4[8:1],,1/7,6,5<8[8:1],
,5/3,2,1p5[8:1]*q5[8:1],{16},,,,,,,,6x,
4,6,4,6,4,6,4,6x,4,6,4,6,4,6,4,
7x,3,7,3,7,3,7,3,8x,2,8,2,8,2,8,2,
{1}1bx-5v2>3-6-2[2:7]*-5v8<7-4-8[2:7],
,,,{8}4h[4:1],
{16},,,,7,6,{4}5<1[4:1],1>5[4:1],
{8}5<4[2:1]*<4[2:1],,,1h[8:3],{16},,,,,,,,2,
6,2,6,{8}2h[8:1],{16}7,6,{8}5,{16}3,4,{8}5,2/8,
{24}8b,1x/7x,2x/6x,3x/5x,{6}4x,{24},1b,2x/8x,3x/7x,4x/6x,5x,,,,,
{4}7bx<3[4:1]/3bx>7[4:1],
{8},,,,7xbh[4:1]/3xbh[4:1],,,,7b/3b,
8b/4b,1b/5b,2b/6b,
E
