&title=お願い!コンコンお稲荷さま
&artist=ARM(IOSYS) feat.ななひら
&des=えども~ん
&first=0
&lv_5=12+
&inote_5=
(175)
{1},
{8}4-7[6:1]/5-2[6:1],,,,1,1,1b,,6,5,4,3,,1b/8b,1b/8b,,
{8}7-5[8:1]/4-8[8:1],47,,,{16}16,,7,8,7^4[8:1],,7,,1-5[8:1],,1,,8,,8,,4,5,3,6,1,,28,,
{8}3-6[8:1]/7-2[8:1],37,,,{16}4,5,4,5,3,6,2,7,{4}1-4[8:1],1-5[8:1]/8,1-6[8:1]/7,16,
{8}2-4[8:1]/5-1[8:1],52,,,{16}83,,2,1,2^5[8:1],,2,,8-4[8:1],,8,,1,,1,,5,4,6,3,8,,7q6[8:5]/1p2[8:5],,
{1},{16},,6,5,6-8[6:1],,1,,{4}2-4[8:1]/6-4[8:1],,
{8}3,3,4-7[8:1],4,3h[4:1],,8b,,
{8}6,6,5-1[6:1],5,6,8,8b,,
{16}3,4,3,4,3,,,,6,5,6,5,6^1[4:1],,,,
{4}1^4[4:1],4^7[6:1],8-5[6:1]*-3[6:1],,
{8}6,6,5-1[8:1],5,6h[4:1],,8b,,
{8}3,3,4-8[6:1],4,3,1,1b,
{8}3v2[6:1],3,,,6v7[6:1],6,,,4,{4}3V16[3:1]/6V83[3:1],,,,
{8}2,2,4-7[8:1],4,2h[4:1],,8b,,
{8}7,7,5-2[8:1],5,7,8,8b,,
{16}7,8,7,8,7,,,,2,1,2,1,2^5[4:1],,,,
{4}5^8[4:1],8^3[6:1],4-1[6:1]*-7[6:1],,
{8}8,8,1-5[6:1],1,7h[4:1],,1b,,
{8}1,1,8-4[6:1],8,2,1,1b,,
{1}3bq5[2:1]/5b<4[2:1],
{8}3,4,5,6,27,,4,5,
{1}1pp1[2:1]/6pp6[2:1],7qq7[2:1]/3qq3[2:1],
{16}7h[16:3],,,6,7,,1,,2h[16:3],,,3,2,,{8}8,7,8,1,2,35,,8,1,
{1}2qq2[2:1]/7qq7[2:1],4pp4[2:1]/8pp8[2:1],3pp3[2:1]/6qq6[2:1],
{4}7h[4:1],5h[4:1],4h[4:1],3,
{4}1p5[6:1]/2v5[6:1],,37,3b/7b,7v4[6:1]/8q4[6:1],,26,2b/6b,
{4}4h[8:1]/5h[8:1],4h[8:1]/5h[8:1],1b/8b,1bpp2[8:5]/8bqq7[8:5],,,,,
{1}8b,
{8}4,5,4,5,
{4}4h[8:1]/6h[8:1],3h[8:1]/7h[8:1],
{16}2-5[8:1]/1,,,8,2,,6,,7-4[8:1]/4,,,1,7,,3,,
{16}2^5[8:1]/5,,,8,2,,7,,1b/6b,,,,
{8}4,3,2-5[6:1]/5,,7,7,{16}8-4[8:1]/4,,,2,8<1[2:1],,1,,{4}5h[4:2],,
{16},,3,4,3,,5,,2h[2:1]/8,,,,{8}1b,1b,1b,{16}8,1,8,,7,,6h[8:3]/4,,,,5,,5,,{4}47,38,
{16}26,,7,8,7,,16,,37,,4,5,4,,{8}3/6h[4:1],,1-4[8:1],8-5[8:1],1,8,,2b/6b,,
{16}7-4[8:1]/8,,,1,7,,3,,2-5[8:1]/5,,,8,2,,6,,
{16}7^4[8:1]/4,,,1,7,,2,,8b/3b,,,,
{8}6,5,4pp4[4:1]/7h[4:1],,4,,{12}8b,8b,,{8}7,8,{4}1^4[8:1]*^6[8:1],1w5[8:1],1b,
{8}7,7,8<3[4:1],,2,2,1>6[4:1],,7,7,8,1,2,3,4^1[4:1]/5^8[4:1],,,,
{4},1-5[8:1]/8-6[8:1],1-3[8:1]/8-4[8:1],1-5[8:1]/8,8-4[8:1]/1,7-3[8:1]/8,2-6[8:1]/7,5>6[1:1]/2,
{1}5/1h[1:1],{4},1-5[8:1],1,82,
{8}4-7[6:1]/5-2[6:1],,,,8,8,8b,,3,4,5,6,,1b/8b,1b/8b,,
{1}5>5[4:14],,8z4[4:6],,3>3[4:14],,6s2[4:6],,
{4}5^8[4:3],,3,3,4^1[4:3],6,6,,7s3[4:3],4,3,2,1,1q5[4:1]*v6[4:1],,,
{4}4V26[1:1]/5V73[1:1],,,,,,2b/7b,,
{4}8^5[4:3],5,4,2,1^4[4:3],4,5h[4:1],,
{16}6h[16:3],,,5,6,,7,,3h[16:3],,,4,3,,2,,8h[16:3],,,1,8,,2,,
{8}6h[8:4],5,4h[8:3],,,5h[8:1],6h[8:1],7h[8:1],8h[8:1],1h[8:1],2h[8:1],3h[8:1],
{4}4h[2:1],,6h[2:1],,8h[4:1],1h[4:1],2h[4:1],,{8}3/5h[8:3],,,4h[8:1],3h[4:1],,4h[8:10],,6<3[8:5],,,,,,,,
{4}5,,,,45,,,,{8}48,37,26,15,{32}8,7,6,5,4,3,2,1,8,7,6,5,4,3,2,1,
{2}8b,
{4}5h[8:1]/3h[8:1],6h[8:1]/2h[8:1],
{16}7-4[8:1]/8,,,1,7,,3,,2^7[8:1]/5,,,7,2,,6,,
{16}5-1[8:1]/4,,,3,5,,2,,7b/3b,,,,
{8}5,6,7-4[6:1]/4,,2,2,{16}1-5[8:1]/5,,,7,1>8[2:1],,8,,{4}4h[4:2],,
{16},,6,5,6,,4,,7h[2:1]/1,,,,{8}8b,8b,8b,{16}1,8,1,,2,,3h[8:3]/5,,,,4,,4,,{4}52,61,
{16}73,,2,1,2,,83,,62,,5,4,5,,{8}6/3h[4:1],,8-4[8:1],1-5[8:1],8,1,,7b/3b,,
{16}2-5[8:1]/1,,,8,2,,6,,7^2[8:1]/4,,,2,7,,3,,
{16}4-8[8:1]/5,,,6,4,,7,,2b/6b,,,,
{8}3,4,5qq5[4:1]/2h[4:1],,5,,{12}1b,1b,,{8}2,1,{4}8^5[8:1]*^3[8:1],8w4[8:1],8b,
{8}2,2,1>6[4:1],,7,7,8<3[4:1],,2,2,1,8,7,6,5pp7[4:1]/4qq2[4:1],,,,
{4},8-4[8:1]/1-3[8:1],8-6[8:1]/1-5[8:1],8-4[8:1]/1,1-5[8:1]/8,2-6[8:1]/1,7-3[8:1]/2,4<3[1:1]/7,
{1}4/8h[1:1],{4},8w4[8:1],8,17,
{8}4^7[6:1]/5^2[6:1],,,,18,18,1b/8b,,6,5,4,3,,1b/8b,1b/8b,,
{8}2^4[8:1]/5p1[8:1],52,,,{16}83,,2,1,2^5[8:1],,2,,8-4[8:1],,8,,1,,1,,5,4,6,3,8,,71,,
{8}6q3[8:1]/2^7[8:1],62,,,{16}5,4,5,4,6,3,7,2,{4}8-5[8:1],8-4[8:1]/1,8-3[8:1]/2,83,
{8}7^5[8:1]/4q8[8:1],47,,,{16}16,,7,8,7^4[8:1],,7,,1-5[8:1],,1,,8,,8,,4,5,3,6,1,,2p3[8:5]/8q7[8:5],,
{1},{16},,4,5,4,,8,,{4}37,1b/8b,
