&title=Shake It Off
&artist=Taylor Swift
&first=-0.05
&lv_5=13+
&des_5=84 It Off
&inote_5=
(160){4},6-8[16:1],{8}6/1,1h[4:1],,7,
{4}5/1-3[16:1],1-6[16:1],5/1pp4[8:3],{8}1/5,6,
7,8,{4}8b-4b[16:1],{8}1/8,1h[4:1],,7,
{4}5/1-3[16:1],1-6[16:1],5/1pp4[8:3],{8}1/5,6,
7,8,1b<4[4:1],B3/E3,{4}C,8x-4[8:1],
{8}8,5,{4}5h[4:1],{8}4-2[16:1],6,4/5-7[16:1],6,
5/4z8[4:1],3,{4}5b/4b,,2/6,
{8}5,4,{4}3/7-5[16:1],7b/1bV35V31[2:1],{8}6,7,
8,8,{4}8bqq4[2:1],1,2,
{8}3,3,{4}3>8[8:1],5/3,{8}6,7,
2,3,{4}4/8bqq4[2:1],1,2,
3,3>8[8:1],{8}5/3,5,6,6,
7,7,1bx>5[8:1],B6/E7,{4}C,1-5[8:1],
{8}1,4,{4}4h[4:1],{8}5-7[16:1],3,5/4-2[16:1],3,
4/5s1[4:1],6,{4}4b/5b,,7/3,
{8}4,5,{4}6/2-4[16:1],2b/8bV64V68[2:1],{8}3,2,
1,1,{4}1bpp5[2:1],8,7,
6,6<1[8:1],4/6,{8}3,2,
7,6,{4}5/1bpp5[2:1],8,7,
6,6<8[16:1],4/6b,1/2-5[16:1],
2b>2[2:1],2bx/6bxh[2:1],,,,1-5[16:1],
1/8-4[16:1],{8}8,2,
{4}2q7>4[2:1],2b/6bh[2:1],{8},,,,6,
{16}3,5,{4}4-2[16:1],4-6[16:1],4-8[16:1],
4qq8[2:1]*pp8[2:1],4bx,,,2>6[4:1],
6<2[4:1],2>5[4:1],6h[4:1],
{8},6,4b,4b,8b,8b,4b,4bh[4:1],
,8b,{48},,,,,,,,,,,,A7f/D8,D7,A6,D6,,,,,,,,,A2f/D2,D3,A3,D4,,,,,,,,,{8}7x,
6x,5x/4x,6/2,3/7,1/8,{32}8/1bx>5[32:3],7,{16}6,{32},,,,8/1bx,
7,{16}6,{32},,,,1/8bx<4[32:3],2,{16}3,{32},,,,1/8bx,2,{16}3,{32},,,,8/1bx>5[32:3],7,{16}6,{32},,,,8/1bx,
7,{16}6,,,{8}8x/1x,7/3,2/6,4/5,{32}5/4bx>8[32:3],6,{16}7,{32},,,,5/4bx,
6,{16}7,{32},,,,4/5bx<1[32:3],3,{16}2,{32},,,,4/5bx,3,{16}2,{32},,,,5/4bx>8[32:3],6,{16}7,{32},,,,5/4bx,
6,{16}7,,,{8}5x/4x,6/2,3/7,1/8,{32}8/1bx>5[32:3],7,{16}6,{32},,,,8/1bx,
7,{16}6,{32},,,,1/8bx<4[32:3],2,{16}3,{32},,,,1/8bx,2,{16}3,{32},,,,8/1bx>5[32:3],7,{16}6,{32},,,,8/1bx,
7,{16}6,{32},,,,8x,7x,,,2x,3x,,,6bx-1[16:1],5x,,,,,,,,,,,,,,,4x,
3x,,,6x,7x,,,2bx-5[16:1],1x,,,,,,,{4}2b/8b-4[16:1],8b/2bv5[16:1],
2b,{8}3x/6x,2/5,3/7,1/8,{32}8/1bx>5[32:3],7,{16}6,{32},,,,8/1bx,
7,{16}6,{32},,,,1/8bx<4[32:3],2,{16}3,{32},,,,1/8bx,2,{16}3,{32},,,,8/1bx>5[32:3],7,{16}6,{32},,,,8/1bx,
7,{16}6,,,{8}8x/1x,7/3,2/6,4/5,{32}5/4bx>8[32:3],6,{16}7,{32},,,,5/4bx,
6,{16}7,{32},,,,4/5bx<1[32:3],3,{16}2,{32},,,,4/5bx,3,{16}2,{32},,,,5/4bx>8[32:3],6,{16}7,{32},,,,5/4bx,
6,{16}7,,,{8}5x/4x,6/2,3/7,1/8,{32}8/1bx>5[32:3],7,{16}6,{32},,,,8/1bx,
7,{16}6,{32},,,,1/8bx<4[32:3],2,{16}3,{32},,,,1/8bx,2,{16}3,{32},,,,8/1bx>5[32:3],7,{16}6,{32},,,,8/1bx,
7,{16}6,{32},,,,8x,7x,,,2x,3x,,,6bx-1[16:1],5x,,,,,,,,,,,,,,,4x,
3x,,,6x,7x,,,2bx-5[16:1],1x,,,,,,,{8}2b/8b-4[16:1],7,2bv5[16:1],3,
6x,7,8bh[8:11],E3/D3,{4}E5,E7/D7,
{8}E1,C,{4}E5,C/B5/B4,{8}8x<4pp6[2:1],3,
3,2,{4}2h[4:1],,2>5[8:1],
{8}6,7,{4}8-4[8:1],{8}8,3,2,1,
8pp4[2:1],5,{4}8bx/5bh[2:1],,,6/3,
E7/E5,E3/E1,{8}5,6,
7,8,{4}1bpp5[2:1],8,7,
6,6<1[8:1],{8}4/6,4,3,3,
2,2,8bx<4[8:1],B3/E3,{4}C,8-4[8:1],
{8}8,5,{4}5h[4:1],{8}4-2[16:1],6,4/5-7[16:1],6,
5/4z8[4:1],3,{4}5b/4b,{8},,2/7,6,
5,4,{4}3/7-5[16:1],7b/1bV35V31[2:1],{8}6,7,
8,8,{4}8bqq4[2:1],1,2,
3,3>8[8:1],5/3,{8}6,7,
2,3,{4}4b/8bqq4b[2:1],1,2,
3,3>1[16:1],3b/5b,8/7-4[16:1],
7b<7[2:1],7bx/3bxh[2:1],{16},,,,,,,,,,,,8-4[16:1],
,,8/1,{4}8/1-5[16:1],{8}1,7,
{4}7p2<5[2:1],7b/3bh[2:1],{16},,,,,,,,3,
,,5,{4}5-7[16:1],5-3[16:1],5-1[16:1],
5pp1[2:1]*qq1[2:1],5bx,,,7<3[4:1],
3>7[4:1],7<4[4:1],3h[4:1],
{8},3,5b,5b,1b,1b,5b,5bw1b[16:1],
{4},,{48}A2f/D2/A1,D3,A3,D4,,,,,,,,,A7f/D8/A8,D7,A6,D6,,,,,,,,,{8}2bx,
3bx,5bx/4bx,3/7,6/2,8/1,{32}8bx<4[32:3],1bx,2bx,3bx,,,,,1/8bx,
2,{16}3,{32},,,,1bx>5[32:3],8bx,7bx,6bx,,,,,8/1bx,7,{16}6,{32},,,,8bx<4[32:3],1bx,2bx,3bx,,,,,1/8bx,
2,{16}3,,,{8}1x/8x,2/6,7/3,5/4,{32}4bx/5bx<1[32:3],3bx,{16}2bx,{32},,,,4/5bx,
3,{16}2,{32},,,,5bx/4bx>8[32:3],6bx,{16}7bx,{32},,,,5/4bx,6,{16}7,{32},,,,4bx/5bx<1[32:3],3bx,{16}2bx,{32},,,,4/5bx,
3,{16}2,,,{8}4x/5x,3/7,6/2,8/1,{32}1bx/8bx<4[32:3],2bx,{16}3bx,{32},,,,1/8bx,
2,{16}3,{32},,,,8bx/1bx>5[32:3],7bx,{16}6bx,{32},,,,8/1bx,7,{16}6,{32},,,,1bx/8bx<4[32:3],2bx,{16}3bx,{32},,,,1/8bx,
2,{16}3,{32},,,,1b,2x,,,7b,6x,,,3bx-8[16:1],4x,,,,,,,,,,,,,,,5b,
6x,,,3b,2x,,,7bx-4[16:1],8x,,,,,,,{4}7b/1b-5[16:1],1b/7bv4[16:1],
7b,{8}6x/3x,7/4,6/2,8/1,{32}1bx/8bx<4[32:3],2,{16}3,{32},,,,1/8bx,
2,{16}3,{32},,,,8bx/1bx>5[32:3],7,{16}6,{32},,,,8/1bx,7,{16}6,{32},,,,1bx/8bx<4[32:3],2,{16}3,{32},,,,1/8bx,
2,{16}3,,,{8}1x/8x,2/6,7/3,5/4,{32}4bx/5bx<1[32:3],3,{16}2,{32},,,,4/5bx,
3,{16}2,{32},,,,5bx/4bx>8[32:3],6,{16}7,{32},,,,5/4bx,6,{16}7,{32},,,,4bx/5bx<1[32:3],3,{16}2,{32},,,,4/5bx,
3,{16}2,,,{8}4x/5x,3/7,6/2,8/1,{32}1/8bx<4[32:3],2,{16}3,{32},,,,1/8bx,
2,{16}3,{32},,,,8/1bx>5[32:3],7,{16}6,{32},,,,8/1bx,7,{16}6,{32},,,,1/8bx<4[32:3],2,{16}3,{32},,,,1/8bx,
2,{16}3,{32},,,,1b,2x,,,7b,6x,,,3bx-8[16:1],4x,,,,,,,,,,,,,,,5b,
6x,,,3b,2x,,,{4}7bx-4[16:1],7b/1b-5[16:1],1b,
7b/3b,{48}E7,E6,{24}E5,{48},,E1,E2,{12}E3,{2}Cf,
{48}E3,E4,{24}E5,{48},,E1,E8,{12}E7,Cf,,,{4}Ch[8:1],Ch[8:1],
Ch[8:1],{48}8b,7x,{24}6x,{48},,1b,2x,{12}3x,{48}6b,5x,{24}4x,,,,,{4}6h[8:1]/2h[8:1],
{48}1b,2x,{24}3x,{48},,8b,7x,{12}6x,{48}3b,4x,{24}5x,,,,,{4}Ch[8:1],Ch[8:1],
Ch[8:1],{48}D7,A6,{24}D6,{48},,A2,D3,{12}A3,{2}Cf,
{48}A7/D8,D7,{24}A6,{48},,A2/D2,D3,{12}A3,C,,,{4}6xh[8:1]/2xh[8:1],6xh[8:1]/2xh[8:1],
6xh[8:1]/2xh[8:1],{48}6bx,5,{24}4,{48},,1bx,2,{12}3,{48}7bx,6,{24}5,,,,,{4}7h[8:1]/3h[8:1],
{48}3bx,4,{24}5,{48},,8bx,7,{12}6,{48}2bx,3,{24}4,,,,,{4}5-1[16:1],5w1[16:1],
,D7/E7/E3/D3,
E
