&title=UNDEAD
&artist=YOASOBI
&first=0
&des=十早月
&lv_5=13.6-.8
&inote_5=(144)
{1},
{16},,A8f/E8/B8/E1,,3,,2qq5[16:6],,
,,,,,,,,
,,3/7,,6/B1/E2f/B2,,6<2v4[16:6],,
,,,,,,,,
,,C1/B2/B1/E2f,,5,,5-2V46-1[16:7],,
,,,,,,,,
,,,,2/4,,3,,
4/5,,6,,3/7,,1bx/8bx,1bx/8bx,
,,2^5[8:1]/5,,6,,7,,
8-4[8:1],,4,,3,,1,1,
,,6^1[8:1]/8,,2,,3,,
4-8[8:1],,8,,7,,5,5,
,,2/6-2[8:1],,3,,4/6,4V25-1[3:1],
,3,,6,,7,7,,
8b,,8b,,3,4h[4:1],,B5/B6,,2h[8:1],,8,,4-1[12:1]/7-4[12:1],4/7,,4bx/7bx,,
,,2b,,3h[4:1],,4,,5,,4/6,,6,5,
6,,5b/7b,,6,,4/5h[4:1],,3,,2,,1/5,,1,7,
1,,2b/8b,,3,,5/4h[4:1],,6,,7,,7/5,,7,3,
7,,1b/8b,,3/4,,7,,5/6,,2,,1h[2:1],,B4/E5,,
E3,,B1/B2,,8b,,5/7,,4,,3/5,,2h[8:1],,4,3/5,
,6,5,,7,8,7,,2,1,2,,4/8,,6,5,7,3,4,2,
8,1,7,5,6,3,4,2,{24}8,7,6,1,2,3,{32}5x,6x,7x,8x,2x,3x,4x,5bxV71V35[3:1],{48}E1/B8/B1f,,,{16},,,,,,,
,,8x,,7x,,6x,,
5xpp8[2:1]/2bx,,,,B4,,,,B3,,,,B2,,,,
1pp5[2:1],,,,A8,,,,A7,,,,A6,,,,
3x/4x,,3,,1x/3x,,3,,3x,5,,5,3x,,1/8,,
2/7,,3,4h[8:1],,1,8h[8:1],,5,6h[8:1],,1,8h[8:1],,2,,
2b/8b,,2,,2/4,,2,,3/5,,6,5,6,,
4/7,,2/8,,8,,8/6,,8,,7/3,,2,1,2,,
7h[4:1],,5,,3h[4:1],,5,,8h[4:1],,6,,1h[4:1],,3,,
5,,7-3[8:1],,,,3w7[8:1]/7,,,,3,,,,
6b-3[8:1]/8b-5[8:1],,,,6/8,,,,2,,1/3,,2,4,2,4,
2,,5,,4-1[8:1]/6,,4,,8,,7,,6,5,6,5,
6,,3,,2,4,2,,6,5,6,,3,4,3,,
7,5,7,,1/8,,2,1,3,8,4-8[8:1],,3/5,,4,,
7>2v5[4:1],,,,B1/B2f/E2,,,,4,,2/6,,5,3,5,3,
5v2[8:1]*v8[8:1],,5,,,,,,3,,3/5,,6,5,6,5,
7,,1/8,,2x,4,3,,6x,5,7,,3x,4,1,,
6x,5,8,,1,,2/7,,6x,5,7,4,8hx[8:1],,2,1,
3hx[8:1],,4,2,5hx[8:22],,,,,,,,E2,,B1,,
,,,,E6,,B5,,,,,,A2,,B2,,
,,,,A7,,,,B5,,,,4,,3,,
2,,1q8b[8:1],,8>5[8:1]*-5[8:1],,1b,,,,,,2x/7x,,3,4,
2h[8:1],,8,,{32}A1f/B1/8b,7,6,5,{16},,3,4,,6,4>8[8:1],,3,5,
4,,7h[8:1],,5V38[8:1],,,,5/6h[8:1],,,,1/6,1/6,,2,
4,,5/4-2[12:1],,7,,4-8[8:1],,6,,4^1[8:1],,7,,4^7[8:1],,
6,,2/4-8[8:1],,1^4[8:1],,4^7[8:1],,1,,B1/B8f/B7,,,,2x/8x,,
2x/8x,,3,,5/3,,3,,3/E7/B6/B7,,3,,3/4,,1/8,1/8,
,,6,,4/6,,6,,6/E3/B3/B2,,6,,6/5,,8/3,8/3,
,,2/6,,5,4<8[8:1],5,,2,4,2,,3b,1,2,6b,
4,7,1,,4xb/3xb-8[8:1],,2/6,,3xb/7xb-3[8:1],,5,,1b^4[8:1]*^6[8:1]/7b,,,,
1bw5[8:1],,,,Cf/B1/B2/B3/B4/B8/B7/B6/B5/1b>8b[2:1],,,,,,,,,,,,
,,3x/7x,,B1/B2/Cf/6x,,6x<2v4b[16:6],,
,,,,,,,,
,,C1/B2/B1/E2f,,5x,,5x-2V46-1b[16:7],,
,,,,,,,,
,,,,5/7,,3,,
1/6,,3/8,,4/5,,1b/8b,1b/8b,,,
2/4-1[8:1],,3,,7-3[8:1]/4,,5,,7/8,,2,,8/4,8/4,,,
3/6^1[8:1],,5,,6/2-7[8:1],,4,,2/5,,4,,2/6,26,,,
3/7-3[8:1],,6,,5/7,5V36-2[3:1],
,4,,6,,7,7,,8b,,8b,,
3,4h[4:1],,B5/B6,,2b,,3/8,,6,5h[4:1],,B4/B3,,7b,,1/6,,5,4h[4:1],,B2/E3/B3,,6b,,1-4b[12:1]/7-4b[12:1],1/7,,1b/7b,,,,
E6/B6f/A6/A3/B3/E4,,,,2h[8:1],,7,,2h[8:1],,6,,
2h[8:1],,5,,2h[8:1],,4,,2h[8:1],,3bV16[24:5],,1b-5[8:1],,
,,,,,,7h[8:1],,4,,7h[8:1],,3,,7h[8:1],,2,,
7h[8:1],,1,,7h[8:1],,8,,7h[8:1],,5,,
4-8[8:1]/8-4[8:1],,1/3,,4/8/Cf,,,,
1x,,2/8,,2x/8x,,3,,2x/4x,,5<1[8:1],3,,3,5,,2,,
3,,3x/4x,,3,,3x/8x,,7<3[8:1],1,,1,7,,
2-5[12:1],2,,,2/6-2[12:1],,8,,3-8[12:1]/6,3,,7,,6,6,,3-6[12:1]/5,3/5,,,7-3[12:1],7,,,3,,1h[128:1],,1h[128:1],,
