&title=Rabbit In The Black Room
&artist=Rabbit House
&first=0.02
&des=Tane
&freemsg=
&wholebpm=135
&des_1=
&des_2=
&des_3=
&des_4=
&des_5=Tane
&lv_5=14
&inote_1=
&inote_2=
&inote_3=
&inote_4=
&inote_5=(135)
{1},
{8}
3h[4:1],,4,,
6h[4:1],,5,,
2h[4:1],,4,,
7h[4:1],,8,,
2h[4:1],,4,,
6h[4:1],,5,,
3h[4:1],,1,,
7h[4:1],,8,,
3h[2:1],4,5,,
7h[8:3],5,4,3,
2h[2:1],5,6,,
8h[8:3],1,2,3,
8,7,6,5,
4,3,2,1,
1b>6[4:1],,,,
8bz4[8:1],,,,
{16}
3,,3,4,
2,,5,,
{24}3,4,3,4,,,
{16}3,,5,,
8,7,1,,
1,6,2,,
2,5,3,,
3,,4,,
4,3,5,,
3,,5,2,
,4,,3,
4,,1,,
2,4,,3,
5,,4,,
4,7,4,7,
5,6,5,,
6,,6,5,
7,,4,,
{24}6,5,6,5,,,
{16}6,,7,4,
1,2,8,,
8,3,7,,
7,4,6,,
6,,4,6,
5,6,4,,
6,,4,7,
,5,,6,
5,,8,,
7,5,,6,
4,,5,,
5,3,,4,
,5,3,7,
1h[12:1]/8h[12:1],,1h[12:1]/8h[12:1],,
18,18,,1h[12:1]/8h[12:1],
,18,18,,
1h[16:3]/8h[16:3],,,,
1,8,3,5,
2,7,4,6,
2,7,3,5,
4,6,2,,
8h[12:1]/1h[12:1],,8h[12:1]/1h[12:1],,
81,81,,8h[12:1]/1h[12:1],
,81,81,,
8h[16:3]/1h[16:3],,,,
1,8,4,6,
1,7,3,5,
26,,48,,
3,5,1,,
{8}
1h[8:3]/2,2,2,2,
2/3h[8:1],2,2/4h[8:1],2,
4h[8:1]/7,7,7/5h[8:1],7,
5h[8:1]/4,4,{16}4,6,1,8,
1,1,4,3,
5,5,3,4,
2,2,4,3,
6,4,5,3,
8,8,5,7,
3,3,6,4,
7,7,3,5,
2,6,4,8,
{4}
,,,,
{4}
4V26[4:2],,6<2[8:3],,
5V73[4:2],,3>7[8:3],,
2V84[4:2],,4q2[8:2],,
7V15[4:2],,5-8[8:1],,
{24}
3h[16:2],,,,,,
4,3,,,,,
6h[8:1],,,,,,
5,6,,,,,
2h[16:2],,,,,,
4,2,,,,,
6h[8:1],,,,,,
5,6,,,,,
2h[16:2],,,,,,
4,2,,,,,
7h[8:1],,,,,,
5,7,,,,,
1h[16:2],,,,,,
4,1,,,,,
6h[8:1],,,,,,
5,6,,,,,
3h[8:2],,,4,,,
4,,,3,4,,
2,,,3,,,
5,,,6,,,
7h[8:2],,,3,,,
4,,,6,4,,
7,,,8,,,
2,,,4,,,
6h[8:2],,,5,,,
5,,,7,5,7,
5,,,6,,,
4,,,3,,,
2h[8:2],,,6,,,
5,,,2,4,2,
4,,,1,,,
7,,,5,,,
{4}
4h[256:1],3h[256:1],2h[256:1],1h[256:1],
{8}8h[256:1],7h[256:1],8h[256:1],7h[256:1],{4}6h[256:1],5h[256:1],
{8}
4h[256:1],4h[256:1],3h[256:1],3h[256:1],
2h[256:1],,1h[256:1],,
8,8,7,7,
1,1,2,2,
3pp8[4:2]/6h[8:1],,7h[8:1],,
6,6,7,7,
7pp4[4:2]/2h[8:1],,3h[8:1],,
2,2,3,3,
{16}
3,4,3,4,
2,5,2,5,
61,,61,,
78,,78,,
2,1,2,1,
3,8,3,8,
2,8,4,6,
1,7,3,,
{16}
3,4,3,4,
2h[8:1]/5,,5,,
4h[8:1]/5,,5,,
5/6h[8:1],,5,,
5,6,5,6,
5/7h[8:1],,5,,
5/4h[8:1],,5,,
3/4h[8:1],,3,,
2,5,2,5,
1,6,1,6,
8/7h[8:1],,8,,
1h[8:1]/8,,8,,
1,8,2,7,
1,8,2,7,
3,6,3,6,
4,5,4,5,
3,7,1,6,
5/2h[8:1],,5,,
5/6h[8:1],,5,,
5/3h[8:1],,5,,
2,6,4,7,
3,5,1,,
1/2h[8:1],,1,,
1/7h[8:1],,1,,
6,1,6,1,
8,3,8,3,
4/7h[8:1],,4,,
2h[8:1]/4,,4,,
7,2,6,5,
8,2,4,3,
6,5,7,3,
5,3,7,1,
{12}
7/8h[12:4],7,7,
7,7,7,
7/1h[12:4],7,7,
7,7,,
2/1h[12:4],2,2,
2,2,2,
2/8h[12:4],2,2,
2,2,,
3/4h[12:4],3,3,
3,3,3,
6/4h[12:4],6,6,
6,6,,
1/7h[12:4],1,1,
1,1,1,
1/2h[12:4],1,1,
1,1,,
5h[12:1]/2,2,2/5h[12:1],
2,5h[12:1]/2,2,
2/5h[12:2],2,2,
5h[12:2]/2,2,,
4h[12:1]/7,7,7/4h[12:1],
7,4h[12:1]/7,7,
7/4h[12:2],7,7,
4h[12:2]/7,7,,
4h[12:1]/3,3,5h[12:1]/3,
3,63,,
5h[12:1]/6,6,4h[12:1]/6,
6,6/3,,
1h[12:2],5,5,
2h[12:2],6,6,
7h[12:2],3,3,
8h[12:2],4,4,
{8}
8h[12:1]/4h[12:1],7h[12:1]/3h[12:1],6h[12:1]/2h[12:1],5h[12:1]/1h[12:1],
{12}4,8,6,
{24}2,3,4,5,6,7,
{4}
8,,,,
,,,,
{8}
3h[4:1],,4,,
3h[4:1],4,5,6,
7h[4:1],,5,,
7h[4:1],6,5,4,
{12}3h[4:1],,,{24}4,,,3,4,,
{8}3,4,5,6,
{12}7h[4:1],,,{24}5,,,7,5,,
{8}7,6,5,4,
3,3,{24}4,,,3,4,,
{8}3,5,4,6,
7,5,{24}6,,,6,5,,
{8}7,4,6,3,
2,4,{24}3,,,3,4,3,
{8}4,2,5,3,
6,5,{24}7,,,7,5,7,
{8}5,4,{24}3,4,3,4,,,
25,,
(1){1},E
