&title=全员音游人,但是全删减片段
&artist=高冷小闪
&first=0.75
&lv_5=1
&des_5=
&inote_5=
(125){4},
E
&lv_6=1
&des_6=
&inote_6=
(125){4},
E
&lv_7=?
&des_7=杪秋AUT
&inote_7=
(150){4}6b-1-4b[0.2##0]/3b-7b[0.2##0],{16},8b-5b[0.3##0]/1bp4b[0.3##0],{4},{8}5b-8-3b[0.2##0]/6b-2b[0.2##0],{4},8b<8b[0.2##0]/7b-3b[0.2##0],
7>7[2:1]*>7[1.2##0.4]*>7>7>7>7>7>7[1.6##1.2]/1>1[2:1]*>1[1.2##0.4]*>1>1>1>1>1>1[1.6##1.2],{2},,,{1}E8h[4:7]/B6h[4:7]/E6h[4:7]/B7h[8:9],
{8},,,A4h[8:3],,,,,,1b,
{16}1b,2b,,3b,3b,3b,,4b,{8},,,E7/C/E3/B2/B1/B3/B4,
E7/C/E3/B3/B4/B2/B1,E7/C/E3/B2/B1/B3/B4,{16},7<6-3>2-7[0.3##0],{8},,,Cf,
Cf,{4}Cf,1-7[0.2##0]/8-4[0.2##0],8-5-2[0.2##0.2]*-5-2[0.2##0.4],
,7h[8:5]/6h[8:5]/2h[8:5]/3h[8:5],Cf,Cf,
{64}6-1-4[16:0],7-3[0.375##0],{32},,,,,,,,,,,{8}4-1-6[1##0]/3-7[1##0],,,,,,7b-3b[8:3]/6b-1-4b[8:3],
{4},,,E6h[4:3]/B5h[4:3]/B4h[4:3]/E4h[4:3]/A3h[4:3]/A6h[4:3],
Ch[2:1]/B3h[2:1]/B6h[2:1],1b<4b[8:1],1b<4b[0##0.1],
{8}2<7-3<6[0.1##0],2<7-3<6[0.1##0]*<7-3<6[0.1##0],{4}2<7-3<6b[0.2##0],{8}B8/B1/B2/B3/B4/B5/B6/B7,E1/E8/E7/E6/E5/E4/E3/E2,{4}8b/6b/7b/5b/4b/3b/2b/1b,
{8},8-5[2.6##0]*-2v3-5[2.6##0],{4}3-7-3v6-2[2:1],,,,Ch[2:1],
{2},{8}7b>7b[1.2##0]*-3b[0##0.2]*-3b[8:1]*-3b[0.2##0.2]*-3b[0.6##0.2]*-3b[0.8##0.2]*-3b[1##0.2],
{4},,,{8}6b-8-5-2-4b[0##0.6],
{2},{128}7,E7,B6,B5,{32},,,{128}8,B8,C,B4,{32},,,{128}1,E2,B2,B3,{32},,,,,,,{8}Cf,
Cf,Cf,8-5b[0.2##0]*>1b[0.2##0]/5q2b[0.2##0],{4}7-5v4-2b[0.2##0],6-3[2:1],
{8}Cf,Cf,{16}Cf,Cf,,Cf,{8},8-5-1-4[0.1##0],8-5-3v2-8[0.1##0],7-5v4-2[0.1##0],
{4}1<4[8:1],1b<4b[16:0],{8},{64}8<5[0##0.2],4>1[0##0.2],{32},,,{4}1b>4b[0##0.2]/5b<8b[0##0.2],
2<7-3<6b[0.2##0],1-7b[0.2##0]/8-4b[0.2##0],{2}7>7b[0.6##0]*-3b[8:1]*-3b[0.2##0.2],
{64}1-4<5-8>1s5[3##0],Cf,{32},,,,,,,{8}Cf,Cf,{4},Ch[4:1],
,1s5b[1##0]/7-3b[8:3],{2},{1}6-3[0##3.2],
{8},,,,,6q3[0.2##0]*v3[0.2##0],,7-5>4-2-7[0.2##0]/1-5[0.2##0],
,Cf,Cf,Cf,{64},,,,,,,,,,,,,,,7-3b[0.425##0]*>7b[16:0],{4}6-8v1-3[16:0],
{16}6-8v1-3[0.5##0]*-8v1-3[0.5##0],{4},{16}6b-8v1-3b[16:0],{4},{8}2h[4:1]/3h[4:1]/7h[4:1]/6h[4:1],{4},{2}8h[4:1]/5-8-2[0##0.7],
{8}7-5v4-2b[0.1##0],1<4b[0.1##0],Cf,Cf,
{2}6-3[0##1.4],7b-2b[8:1],
4>1>4[0##0.8]/8<5<8[0##0.8],8<5<8<5<8<5<8<5<8[0##1.6]/4>1>4>1>4>1>4>1>4[0##1.6],
,8-5-8-5[0##0.6]/1-4-1-4[0##0.6],
{8}Cf,Cf,{4}Cf,5-8z4[0.2##0],B8/B1/B2/B3/B4/B5/B7/B6,
2-8-3q7[16:0]/1-5[16:0],B6/B5/B4/B3,2qq5[8:1],2,
8-5[16:0]/1p4[16:0],8b-5b[0##0.2]/1bp4b[0##0.2],{8}1<4[0.1##0],8-5>8[0.1##0],{4}1bs5b[0.2##0.1],
{128},,,,,,,1<3>2q4[0##2.8],{16}2b<5>3>2q4b[0##3],,A8,D8,A7,,D7,,,,D5,{4},,,B6f,
B2f,
{2}Cfh[8:7],{8}B8h[8:3]/B1h[8:3]/B2h[8:3]/B3h[8:3]/B4h[8:3]/B5h[8:3]/B6h[8:3]/B7h[8:3],E1h[4:1]/E2h[4:1]/E3h[4:1]/E4h[4:1]/E5h[4:1]/E7h[4:1]/E6h[4:1]/E8h[4:1],{4}A8h[8:1]/A1h[8:1]/A2h[8:1]/A3h[8:1]/A4h[8:1]/A5h[8:1]/A6h[8:1]/A7h[8:1],
{8}8h[4:3],7h[8:5],6h[2:1],8>3-8[0.6##0.1],7p2v7[16:1],6>3-6[0.2##0.1],{4},{8}6h[8:7]/5h[8:7]/4h[8:7]/3h[8:7],
{4},{16}Cf,Cf,,7b-3>3b[0.5##0],{2},{32}E8f,
E2f,E4f,E6f,B7f/B8f,B1f/B2f,B3f/B4f,B6f/B5f,E8f/B7f/B8f,B1f/B2f/E2f,B3f/B4f/E4f,B6f/B5f/E6f,B7f,B8f,B1f,B2f,B3f,B4f,B5f,B6f,{16}B7f,B8f,{8},{4}6h[32:93],
{2},{4}7bq2b[8:1],
,{16}Cf,Cf,{8}Cf,Cfh[16:1],B2f/A7h[8:1]/D8h[8:1]/A8h[8:1]/D1h[8:1]/A1h[8:1]/D2h[8:1]/A2h[8:1]/D3h[8:1]/A3h[8:1]/D4h[8:1]/A4h[8:1]/D5h[8:1]/A5h[8:1]/D6h[8:1]/A6h[8:1]/D7h[8:1]/B8h[8:1]/E1h[8:1]/B1h[8:1]/E2h[8:1]/E3h[8:1]/B3h[8:1]/B4h[8:1]/E4h[8:1]/E5h[8:1]/B5h[8:1]/B6h[8:1]/E7h[8:1]/B7h[8:1]/Ch[8:1]/E6h[8:1]/E8h[8:1],{16},,,,,,,,,,,6b,
{8},{16}6b,6b,{32},,,6b,,6b,{16},7-5>4-2-7[16:0]/5-1[16:0],
{8},,,{16}6>5-2[0.2##0.1],{4},6-8v1-3[16:0],
{8}6b-3b[1.4##0],{4},{8}6p2[0.2##0.6],{2}6,
{4}6b-1-4b[0.2##0]/3b-7b[0##0.2],Cf/1bs5b[0##0.2],{128}8b-5>8[4:1]*-5>8[4:1],8b-5>8[0##0.3875],{64},,,,,,,,,,,,,,,{4}8b-5>8b[4:1],
{128}8b,{64},,,,,,,,,,,,,,,,,,,{128}6b>5-2[0##0.4125],{16}6b>5-2[4:1]*>5-2[4:1],,,,6b>5-2b[4:1],,,,6b,{8},,,{4}7b-5v4-2b[0##0.4],
{16}E1/C/B6/B5/E5/B4/B3,{8},{16}8-5[0.2##0]/1p4[0.2##0],,8b-5b[0##0.2]/1bp4b[0##0.2],{4},{8}Cfh[8:3],
{4},{2}E1h[4:1]/B1h[4:1]/B2h[4:1]/B8h[4:1]/B7h[4:1]/E7h[4:1]/E3h[4:1]/A3h[4:1]/A6h[4:1]/E6h[4:1]/A5h[4:1]/E4h[4:1]/A4h[4:1],
{1}7>7>7>7>7[0##3.2]/1>1>1>1>1[0##3.2],
4<4<4[0##1.6]*<4<4[0##1.6],
{4}6h[1:1],{32}B4,E5,{16},,,,,,,{32}B4,E5,{16},,,{4}3h[4:3],
{32}B5,E5,{16},,,,,,,{32}B5,E5,{16},,,{4}6/2h[1:1],
{32}B5,E5,{16},,,,,,,{32}B5,E5,{16},,,{4}7h[4:3],
{32}B4,E5,{16},,,,,,,{32}B4,E5,{16},,,{4}6>4[8:1],
E7/B6,2<8[8:1],B2/E3,
6>4[8:1],E7/B6,2<8[8:1],6h[4:5],
{8}7,7,8,8,1,2,3,4,
{4}5h[4:1],{24}4-8[0.1333##0],5-1[0.1333##0],4-8[0##0.0667],5-1[0##0.0667],4-8[0.1333##0]*-8[0##0.1333],5-1[0.1333##0]*-1[0##0.1333],4b-8[0.1333##0],5b-1[0.1333##0],4b-8[0.1333##0]*-8[0##0.1333],5b-1[0##0.1333]*-1[0.1333##0],4b-8b[0.1333##0],5b-1b[0.1333##0],4b-8[0.1333##0],5b-1[0.1333##0],4b-8[0.1333##0]*-8[0.1333##0],5b-1[0.1333##0]*-1[0.1333##0],4b-8b[0.1333##0],5b-1b[0.1333##0],
{8}E3h[8:3]/E7h[8:3]/A3h[4:1]/A6h[4:1],{4},{8}B8h[8:3]/B1h[8:3]/Ch[8:3]/B2h[8:3]/B4h[8:3]/B7h[8:3]/E7h[8:3]/E3h[8:3]/B5h[8:3],{2},{8}Cf,
6q3v6[0.2##0]/8-4b[0##0.2],,{128}7-3<3b[0.8##0],7v2-4<5-7[0.5875##0.2],{4},,{16},{64},,,{16}8-5>4-8>1-5[0.3##0.1],
{8},,,{16}6-3[0##0.7],A6,E6,{8}B5,{4}E4,
{16}5h[4:3]/4h[4:3],{8},,,{16}6b-8v1-3b[0##0.3]*-8v1-3b[0.2##0.3]*-8v1-3b[16:3],{2},{8}8>1s5[0.1##0],
8>1-5>4[0.2##0],,Ch[8:1],{128}8bs4b[8:1]/1b-4b[8:1],{4},{16},,,{64},,,{128}1s5[1.2125##0],
{8}7b-3b[0##1.2]*-3b[1.2##0],7b-3b[0##1],7b-3b[0##0.8],7b-3b[0##0.6],7b-3b[0##0.4],7,{4}7,
{8}7b>7-3b[0.6##0],Cf,{16}Cf,{8},{16}E5/C/E1/B8/B7/B1/B2,{128},,,,,,,,,,,,,,,1<4[0##0.2125],{8}1<4[0.2##0.2]*<4[0.2##0.2],{4}1b,
{8}1-6-2-5[0.2##0],{4},{8}7b-4-8-3b[0.2##0],{4},8-5-1-4[0##0.2],
{1}1h[8:31],
{16},8-5-3v2-8[16:0],{8},,,{4}B8/B7/B6/B5/B4/B3/B2/B1/E4/D4,B8/B7/B6/B5/B4/B3/B2/B1/E4/D4,
{16},5bqq5pp5b[0.3##0],{4},{16},{64},,,{128},8<1[0.0125##0.6],{2}1s5s1b[0##0.6],
{32}8/1,7/2,3/6h[16:13],4,{8}5h[8:1],{4},{8}Cf,Cf,Cf,{128}Cf,{64},,,,,,,{128}3z7[0.6125##0],
{2}6s2b[0.6##0],{128}3v2[8:1],6v7b[0.3875##0.2],{4},{16},,,{64},,,{4}8s4[16:0]/1z5[16:0],
{8}8/1,{16}Cf,Cf,{4}8bs4b[8:1]/1bz5b[8:1],1b/8b,
{8}E7/C/E3/B2/B1/B3/B4/6b-3b[0##0.1],E7/C/E3/B2/B1/B3/B4/6b-3b[0##0.1],{4}8-5-1-4[16:0],{8},8b-5-1-4b[0##0.2],8b-5-1-4b[0##0.2],8b-5-1-4b[0##0.2],
1w5b[0.8##0.2],8b/2b,{32}1b,2b,3b,4b,5b,6b,7b,8b,{2}1b,
E
