&title=COLORS ON CANVAS!
&artist=ロコ (CV.中村温姫)
&first=0
&des_1=コココロコ
&des_2=コココロコ
&des_3=コココロコ
&des_4=コココロコ
&des_5=コココロコ
&lv_5=13+
&des_6=コココロコ
&des_7=コココロコ
&des=コココロコ
&inote_5=(170)
{4}
,,,
{8},4^1[8:1],,,5^8[8:1],,4^1[8:1],,5^8[8:1],,4^1[8:1],,5p4[4:1],,,,,
3h[8:2],,4,4,4,5,5,6,6,2,2,8,8,1,7,1,7,6,6,5,5,4,4,3,3,
2,1,8,7,3-8[8:1]/B7f,,,
6h[8:2],,5,5,5,4,4,3,3,7,7,1,1,8,2,8,2,3,3,4,4,5,5,6,6,
7b,8b,1b,2b,3b-8[8:1]/B7f,,,
5-1[8:1],,2,3,4,1^6[8:1],2,3,4-8[8:1],,7h[16:1],6,5,
4bx/8bx,1bx/5bx,4bx/8bx,1bx^6[8:1]/5bx,,
2,3,4h[16:1],8,71,62,5-7[8:1]`3-5-3V17[4:2]*-5-3V17[4:2],,,,,,,,
6-8[8:1],,1,1,1,6-4[8:1],2,2,3h[4:1],
6-8[8:1],,1,,6-4[8:1],1,2,
3-1[8:1],,6h[16:1],7,6,4-2[8:1],8,7,6,
15,1h[8:1]/5h[8:1],,8^3[8:1]/4^7[8:1],,,,
4-8[8:1],,4,5-7[8:1],5,4-2[16:1]*-8[16:1]b,4,,
1x-5[8:1],1,8-6[8:1],8,1,1-3[16:1]*-5[16:1]b,1,,
4xV68[8:1],,1,2,3,4V28[8:1],7,6,
5b-1[16:1],,,5b-2[8:1]*-8[8:1],,5b,,,
3-8[8:1],,4,5,6,3-8[8:1],4,5,6-1[8:1],,4,2-6[8:1]*-5[8:1],,2,,,
6-1[8:1],,5,4,3,1x/2x,8,1x/2x,3,48,4h[8:1]/8h[8:1],,1^6[8:1]/5^2[8:1],,,,
5-1[8:1],,5,4-2[8:1],4,5-7[16:1]*-1[16:1]b,5,,
8x-4[8:1],8,1-3[8:1],1,8,8-6[16:1]*-4[16:1]b,8,,
5xV31[8:1],,8,7,6,5V71[8:1],2,3,
4b-8[16:1],,,4b-7[8:1]*-1[8:1],,4b,,,,
6pp4[4:2],,,2h[16:1],2,2,2b,,
3qq5[4:2],,,7h[16:1],7,7,7b,
6p3[8:3],,,3,,2,1h[16:1],
8p5[8:3],,4,3,2,1h[8:3],,
{16}B4,B3,B2,B1,B8,B7,
{8}B6/4qq7[8:3],,,8,8-5[8:1],,8,,4qq7[8:3],,,8,8-5[8:1],,8,
3h[8:3],,,1h[8:2],,8h[8:2],,6,6h[8:1],,57,48,3-5[8:1]/1-5[8:1],
,,,
6<3[8:3],,2,3,4,5-8[16:1],,65,
6x<3[8:3],,2,3,4,5-8[16:1],,65,
6x^3[8:1],,8,1,2^7[8:1],,4,5,
6-1[8:1],,6-2[8:1],,6-3[8:1],,
6-1[8:1]*-1[8:1],,6-2[8:1]*-2[8:1],,6-3[8:1]*-3[8:1],,
6-1[8:1]b*-2[8:1]b,,6b,,
{32}3bx/7bx,4x/6x,5xh[16:13],,
{8},,E7,,C,,
{32}E3,,,,7xb/4xb,,,,
{8},6,2b/5b,3,4b-7[16:1]/7b,,,
2-6[8:1],,3,4-8[8:1],2,1-4[8:1],2,6-2[8:1],,
6v4[8:1]*v8[8:1],,6-3[8:1]*-1[8:1],,6-2b[16:1],,,
7-3[8:1],,6,5-1[8:1],7,8-5[8:1],7,3-7[8:1],,
3v5[8:1]*v1[8:1],,3-6[8:1]*-8[8:1],,3-7b[16:1],,,
2^5[8:1],,1,8,7,6-2[8:1],7,6,5,4<7[8:1],,3,4^1[8:1],,8,7,,
5-1[8:1]/6-1[8:1],47,5b/6b,,4-8[8:1]/3-8[8:1],52,4b/3b,,
1-3[8:1],3-8[8:1],8-4[8:1],4w8[8:1],,,,
7h[8:2],,{16}2,4,3,,3h[8:1],,1,,1h[8:1],,7,,7h[8:1],,
{8}5bq1[8:1]*p1[8:1],,5bqq4[8:1]*pp6[8:1],,5b-1b[16:1],,,
7h[8:2],,8,1,2,{16}3,5,4,6,{8}5h[8:1],,
8v1[8:1]*v7[8:1],,8bv5[8:1]*v3[8:1],,8b,,,
4h[8:1],6h[8:1],2h[8:1],8h[8:1],1,
7-4[8:1]/2-5[8:1],,A8/A1/D8/D1/D2/E8/E1f/E2/B8/B1/A2/A7,,
3h[8:1],1h[8:1],8h[8:1],6h[8:1],4-1[8:1]*-7[8:1],,,,
2q6[8:1],1,2,,7bp3b[8:1],8b,7b,,
2q6[8:1],1,2,,7bp3b[8:1],8b,7b,,
1-6[8:1]/6,,5-1[8:1]/1,,2-5[8:1]/5,,4>5[8:3]/2,,Cf,,,,,,,
{16}
E2,E8,E4,E6,B1,B8,A3,A6,B7,B2,A4,A5,E2,E8,E4,E6,B1,B8,A3,A6,B7,B2,A4,A5,
E2,E8,E4,E6,B1,B8,,,
4x,,,,4,4,4,,4,,4,,4,,4,,4,,4,,4,,4,,4,,4,,4,,4,,4,,4,,4,4,4,,4,,4,,4,,4,,4,,4,,4,,4,,4,,4,,,,,,
4bx,,,,4bx,4bx,4bx,,4bx,,4bx,,4bx,,4bx,,4bx,,4bx,,4bx,,4bx,,4bx,,4bx,,4bx,,4bx,,4bx,,4bx,,4bx,4bx,4bx,,4bx,,4bx,,4bx,,4bx,,4bx,,4bx,,4bx,,4bx,,4bx,,4bx,,,,,,
4,,,,4,4,4,,4,,4,,4,,4,,4,,4,,4,,4,,4,,4,,4,,4,,4,,4,,4,4,4,,4,,4,,4,,4,,4,,4,,4,,4,,4,,4,,,,,,
4bx,,,,4bx,4bx,4bx,,4bx,,4bx,,4bx,,4bx,,4bx,,4bx,,4bx,,4bx,,4bx,,4bx,,4bx,,4bx,,4bx,,4bx,,4bx,4bx,4bx,,4bx,,4bx,,4bx,,4bx,,4bx,,4bx,,4bx,,4bx,,4bx,,4bx-8[16:1],,,,,,
{8}3x^8[8:1],,,4b,,3^8[8:1],,4b,,
3^8[8:1],,3b-7[8:1],,3b^6[8:1],,1b,,
6x^1[8:1],,5b,,6^1[8:1],,5b,,
6^1[8:1],,6b-2[8:1],,6b^3[8:1],,8b,,
2x^5[8:1],,1b,,2^5[8:1],,1b,,
2^5[8:1],,2b-6[8:1],,2b^7[8:1],,4b,,
7x^4[8:1],,8b,,7^4[8:1],,8b,,
7^4[8:1],,7b-3[8:1],,7b^2[8:1],,5b,,
3q4[4:1],,,8b^3[8:3]*^5[8:3],,,,,,,,,,,,
4-1[8:5],,,5,,,,5,,
4-1[4:2],,5,,,5,5,
4-1[8:5],,,5,,,,5,,
4-1[4:2],,5,,,{16}7,6,5,,
{8}4xq7[4:1],,,8>5[4:1],,7,7,8,8,6-2[16:1],,,4-8[8:1],,,1,,
2q6[8:1],4,2b,,7p3[8:1],5,7b,,
2q6[8:1],3,2b,,7p3[8:1],6,7b,,
1q6[8:1],3,1b,,8p3[8:1],6,8b,,
2h[32:1],1h[32:1],8h[32:1],7h[32:1],
{16}5h[32:1],6h[32:1],5h[32:1],6h[32:1],
{8},3-8[8:1],,{16}4,4,4^7[8:1],,1,,2-6[8:1],,3,,4-8[8:1],,,,
4bV62[8:1]*V26[8:1],,,,4bv1[8:1]*v7[8:1],,,,4b,,,,,,
{8}
7-3[8:1],,6,5-1[8:1],7,8-5[8:1],7,3-7[8:1],,
3v5[8:1]*v1[8:1],,3-6[8:1]*-8[8:1],,,,,
2^5[8:1],,1,8,7,6-1[8:1]/5-1[8:1],,,,
4bp7[8:1],4,5bq2[8:1],5,4b>8[8:1]*<8[8:1],,,,
{32}2x,3x,4x,5x,6x,7x,8x,1x,{4}2xh[4:1],
{32}7x,6x,5x,4x,3x,2x,1x,8x,{4}7xh[4:1],
{32}2x,3x,4x,5x,6x,7x,8x,1x,{4}2xh[4:1],
{32}7x,6x,5x,4x,3x,2x,1x,8x,{4}7xh[4:1],
{32}2x,3x,4x,5x,6x,7x,8x,1x,{4}2xh[4:1],
{32}7x,6x,5x,4x,3x,2x,1x,8x,{4}7xh[4:1],
{32}2x,3x,4x,5x,6x,7x,8x,1x,{4}2xh[4:1]C,
{8}4-1[8:1]*-7[8:1],,4b,,
2-5[8:1]/8,,4-7[8:1]/2,,6-1[8:1]/4,,8-3[8:1]/6,,
2-5[8:1]/8,,4-7[8:1]/2,,6-1[8:1]/4,,8-3[8:1]/6,,
2-5[8:1]/8,,4-7[8:1]/2,,6-1[8:1]/4,,8w4[8:1],,8b,,,,,,,
5-1[8:1],,2,3,4,1^6[8:1],2,3,4-8[8:1],,{16}7,7,{8}6,5,
4bx/8bx,1bx/5bx,4bx/8bx,1bx^6[8:1]/5bx,,
2,3,{16}4,4,{8}8,71,62,3h[4:1],,
{16}4,4,2,,1,,7,7,5^8[8:1],,4,,
{8}
3-7[8:1],,6,5,4,7^2[8:1],6,5,4-8[8:1],,{16}1,1,{8}2,3,
4bx/8bx,7bx/3bx,4bx/8bx,7bx^2[8:1]/3bx,,
6,5,{16}4,4,{8}8,17,26,5-7[8:1]`3-5-3V17[4:2]*-5-3V17[4:2],,,,,,,,
{32}1b/2b,3x/8x,4x/7x,5x/6x,{8},,,
{32}8b/7b,6x/1x,5x/2x,4x/3x,{8},,,
{32}8b/1b,2x/7x,3x/6x,4x-8[8:1]/5x,{8},,,
E
