&title=『Bubblin'』
&artist=HIMEHINA
&first=0
&des=#Potato451 Thanks for playing!!!
&lv_2=2
&lv_3=7
&lv_4=12
&lv_5=13+
&inote_2=(198)
{1},,,,,,,,,,,,
{1}1,2,3,4,5,6,7,8,E1,E2,E3,E4,E5,E6,E7,E8,Ch[1:4],,,,,4/5,3,6,2,7,1-3[2:1],,8-6[2:1],,C1,C1f,
{1}1bx-3<4[2:1]b,,1,7,3,5,4,6,2,8,
{2}1/8,1/8,1/8,,1>8[2:7]b,,,,,,,,
{1},D1,D2,D3,D4,D5,D6,D7,D8,B1,B2,B3,B4,B5,B6,B7,B8f,,,,,,,,
{1}1h[1:1],,8h[1:1],,1-4>3[1:1]b/8-5<6[1:1],,1,1,2,2,3,3,4,4,5,5,6,6,7,7,8,8,Chf[4:7],
E
&inote_3=(198)
{1},,,,
{4}1,8,2h[2:1]/7h[2:1],,,,,,1/8,1/8,2h[2:1]/7h[2:1],,,3,6,4,5-8[2:1],,,,2h[2:1],,,,4-1[2:1],,,,7h[2:1],,,,
{2}E1,E2,E3,E4,E5,E6,E7,E8,1h[2:3]/2h[2:3],,,,7h[2:3]/8h[2:3],,,,
{1}4V28-6>5[1:1]b,,7v4V61[1:1]b,,
{4}1x/8x,1x/8x,1hbx[2:1]/8hbx[2:1],,,,,,3x,3x,3x-6[2:1],,,,,,
{4}Ch[1:1],,,,,,,,E8/E2,,E7/E3,,E6/E4,,C1,,4/5,4/5,4h[1:1]/5h[1:1],,,,,,3/6,3/6,3h[1:1]/6h[1:1],,,,,,
{1}1>4[1:1],,8<5[1:1],,5<8[1:1]/4>1[1:1],,
{4}2bx,4bx,5bx,7bx,1bx,,,,1/2,,7/8,,3/4,,6/5,,Ch[2:1],,,,4>2[4:1],,,,E4,,E5,,E6,,E5,,1h[1:1]/8h[1:1],,,,,,E3f,,
{4}D2,,D8,,1-3[4:1],,,,8-6[4:1],,,,,,C1,,3/4,,3/4,,6/5,,6/5,,1h[2:1]/8h[2:1],,,,1/8,1/8,1b/8b,,
{1}Ch[2:7],,,,5h[2:7]/4h[2:7],,,,2h[2:7]/7h[2:7],,,,6h[2:7]/3h[2:7],,,,
{2}A1,A2,A3,A4,A5,A6,A7,A8,
{4}1,8,1,,8,1,8,,1-4[1:1]/8-5[1:1],,,,,,,,
{4}2h[2:1],,7h[2:1],,1h[2:1],,8h[2:1],,Ch[2:3],,,,,,,,3v8[2:1],,,,6v1[2:1],,,,,,,,,,,,
{4}3,3,3/4,,,,,,3<6[2:1],,,,,,,,6,6,6/5,,,,,,6>3[2:1],,,,,,,,2,,2,,3,,3,,4,,4,,4/5,3/6,2/7,,
{4}1h[4:3]/8h[4:3],,,,1h[4:3]/8h[4:3],,,,Ch[4:7],,,,,,,,,,,,E8/E2,,,,E7/E3,,,,E6/E4,,,,4,5,3,,5,4,6,,2/6,2/6,2/6,,3/7,3/7,3v2[2:1]/7v6[2:1],
E
&inote_4=(198)
{1},,
{4}Ch[2:3],,,,,,,B2/B3/E3/B6/B7/E7/C1f,
{8}2hx[8:1]/4hx[8:1],,2hx[8:1]/4hx[8:1],,3/5,4,4,,5h[2:1],,4<7[4:1],,,,,,
{8}7hx[8:1]/5hx[8:1],,7hx[8:1]/5hx[8:1],,6/4,5,5,,2h[8:1]/4,,3/5h[8:1],,2h[8:1]/4,,3/5h[8:1],,
{8}4h[1:1]/2,,2>6[4:1],,,,,,6>2[4:1],,,,,,2x,1x,3x/8x,3x/8x,3<7[4:1]/8h[2:1],,,,,,7,,5xqq5[4:1]*pp5[4:1],,,,,,
{4}2/4,5/4,7/5,7/5,5/4,2/4,1/8,8/6,7,7h[2:3],5,5,6,8,1,1,
{4}6/8,1/8,1/3,1/3,1/8,8/6,5/4,2/4,2,2h[2:3],4,4,3,1,8,8,
{8}6h[1:1],,5,,4,,3,,2,2,,2-5[8:1]/4-6[8:1],,,,,2,,2,,8,,5,,5,5,6,6,7,7,8,8,
{8}3h[1:1],,4,,5,,6,,7,7,,7-4[8:1]/5-3[8:1],,,,,7,,7,,1,,4,,6,6,2,2,7,7,1>8[1:1],1,
{1}C1f,
{4}5h[8:1],5h[8:1],4h[8:1]/5,4h[8:1]/5,7-5[8:1]/8h[8:1],,1h[8:1]/2-4[8:1],,C1/B1/A1,C1/A2/B2,C1/A3/B3,C1/A4/B4,
{8}7/5,7/5,7/5-2-8[4:1],,6h[2:1],,,,8-3-5[4:1],,,,,,7/5,,6h[2:1]/4p5<4[4:5]b,,,,,,,,,,,,8b-4[8:1],,,,
{8}C1f,,,1x/8x,2x/7x,,,2/4,2/4,2/4,5/4,4/5,7/5,,,,C1f,,,5x/4x,3x/6x,,,1/3,1/3,1/3,1/8,1/8,8/6,,,,
{8}C1f,,,1/5,3/7,,,2/6,2/6,2/6,4/8,4/8,3/7,,,,
{4}1h[4:1],3h[4:1],5h[4:1],7h[2:1],Ch[2:1],,E1/B8/B1,
{4}4x-8[8:1],C1f,1x-5[8:1]/2x-5[8:1],C1f,8x-4[8:1]/7x-4[8:1],C1f,
{8}3x,4x,2,,5,,2h[8:1]/5h[8:1],,2h[8:1]/5h[8:1],,1h[8:1]/6h[8:1],,1h[8:1]/6h[8:1],,8-3[8:1],,7qq5[8:1],,8b,,,,
{4}E3,E2,E8,E7,A6,A5,A4,A3,6-8>1-3[2:1]b,,,,4hx[2:1],,D3f,,
{8}3/4,,4/5,,5/6,,5>3[8:1],,6q3[4:1],,,,,,1b/8b,,5qq5[8:3]*pp5[8:3],,,,,,,,6/5,,5/4,,4/3,,8-5[2:1]*>2v3<5[2:1],,
{1},5>3v2<8[2:1]*-8[2:1],
{4}C1h[1:1]/E8/B8/B7,,E6/B5/B6,,8-5[8:1],1-4[8:1],C1f,,
{2}8h[4:1]/2h[4:1],1h[4:1]/7h[4:1],8h[4:1]/2h[4:1],1h[4:1]/7h[4:1],7h[4:1]/8h[4:1],1h[4:1]/2h[4:1],7h[4:1]/8h[4:1],1h[4:1]/2h[4:1],
{2}6h[4:1]/4h[4:1],5h[4:1]/3h[4:1],6h[4:1]/4h[4:1],5h[4:1]/3h[4:1],6h[4:1]/5h[4:1],4h[4:1]/3h[4:1],6h[4:1]/5h[4:1],4h[4:1]/3h[4:1],
{8},,E2,E8,,,C1,,,,E6,E4,,,C1,,,,E3,E7,,,C1,,,,E5,E1,,,C1,,5<4[2:3]/4>5[2:3],,,,,,,,,,,,,,,,
{4}1/6,8/3,2/5,4/7,Ch[2:1]/B2/B3/E3/B6/B7/E7,,,,
{2}4w8[1:1],,,,5w1[1:1],,,,
{4}4>3-1<7-5>4[1:1],C1f,,,,,,
{4}4v7[8:1],6,5v2[8:1],3,4h[4:1],5-1<7[4:1],,C1,3-1[8:1]/4-1[8:1],B2f,6-8[8:1]/5-8[8:1],B7f,1hx[8:1]/3hx[8:1],1h[8:1]/3h[8:1],2v5[8:1],8-6[8:1],,4qq4[8:3]*pp4[8:3],,,3q8[4:1],4<7[4:1],,,,E4,E5,E6,5-2[4:1]/6<1[4:1],
{4},,2/5,2<8-3[2:1]/5<7-4[2:1],,,,,C1f/E1/B8/B1/B4/E5/B5,,,,2/4,B3,7/5,B6,
{8}3h[2:1],,4,,5h[2:1],,4,4,4-2v8>3[1:1]*-6v8<5[1:1],,,,,,,,,,,,,,,,1/3,,B2,,6/8,,B7,,2h[2:1],,1,,8h[2:1],,1,1,
{8}1-4[4:1]*-6[4:1],,,,,,
{4}1b/2b,8b/7b,1b/8b,5b/4b,,3-5[8:1],,2-6[8:1],,3-5[8:1],,2-8[8:1],,7/4,6/3,5/2,4/1,2v4[8:1],6v8[8:1],2,,B2/B3/E3,,E7/B7/B6,,A1/E2/D2/A2/A7/E8/A8/D8,,4/5b,5/4b,2h[2:1],7h[2:1],,,
{8}1/8,1/8,1/8,1/8,1b-5[8:1]/8b-4[8:1]b,,C1f,,
{8}2hx[8:1]/4hx[8:1],,2hx[8:1]/4hx[8:1],,6/4,5,5,,4h[2:1],,5>2[4:1],,,,,,
{8}7hx[8:1]/5hx[8:1],,7hx[8:1]/5hx[8:1],,3/5,4,4,,4h[8:1]/2,,B1/4h[8:1],,4h[8:1]/2,,B1/4h[8:1],,
{8}4h[1:1]/2,,2>6[4:1],,,,,,6>2[4:1],,,,,,2x,1x,3x/8x,3x/8x,3<7[4:1]/8h[2:1],,,,,,1/8,2/7,3/6,4/5,4b/5b,,C1f,
E
&inote_5=(198)
{1},,
{8}4h[4:1]/5h[4:1],,,,E2,B6,B4,B8,E3,E6,B4,B7,1x-4[8:1]*-6[8:1],,1b,,
{8}2-5[8:1],,6,,8/7,1,2,3,4h[4:1],5,6,7/3v8[8:1],,4,5,6,7-4[8:1],,3,,1/2,8,7,6,5,E2,4,E8,5,E2,4,E8,
{8}5-1[8:1]*v8[8:1],,5,,2,3,4,5/6,7,8,4h[4:1],5,,5/4,3,1/2,
{8}8-4[8:1]*v5[8:1],,8,,6,7,8,1,2,5h[4:1],2,4h[4:1],1,5h[4:1],2,4,
{8}1x-3<4<5-7[1:1],,C1,,C1,,C1,,C1,,C1,,C1,,C1,,8x-6-4-7[1:1],,C1,,C1,,C1,,C1,,C1,,C1,,C1,,
{4}2x-5-3-7[1:1],E1,E8,E7,E6,E5,E4,B2/E3/B8/E1,6-4v2-8[1:1],A3,B3,C1,B7,A7,B1/E2/E6/B6,E8/B8/E4/B3,
{8}2>6[2:1],,5,,6v3[4:1],,7,7,8,8p3[8:1]/2v5[8:1],,,,,3,4,7-5v4[2:1]/5,,5,,4-8[4:1],,3,3,
{8}2,2h[4:1],1,1h[4:1],8,8h[4:1],7,7,6>3[8:1]/5,,2h[8:5],,C1,,8,8,1,1p5[8:1]/2pp4[8:1],,,,,6,4,
{8}3>8[8:1]/5,,6h[4:1],,7>2[8:1],,5,5,4/3x,4/3x,3-1[8:1],,4-6[8:1],,8qq4[8:3],,1-3[8:1],,,,
{16}2x,,3,4,3,,2/5,,7,,8,,7<3[2:1],,8h[4:1],,,,,,8,,1,,
{16}2-6[8:1],,,,2/4,,,,3,,5,3,4,,2,,6/5,,4x,,6/5,,7x,,6/5,,3x,,6/5,,8x,,
{16}1p8[4:1],,,,1/8,,,,
{24}7x,,,E7,B6,B5,
{8}E5,3,2/1,8,7,6/3<6[4:1],,7,8,1,8qq6<8[4:1],,1/8,,
{24}2x,,,E3,B3,B4,
{8}E5,6,6h[8:1],3,5xz1[4:1]`4xs8[4:1]*s8[4:1],,,,,,
{8}1hbx[4:1]/6hbx[4:1],,,2/7,3hb[4:1]/8hb[4:1],,,2x/7x,1x/6x,5x/8x,1x/6x,2x/7x,3hb[4:1]/8hb[4:1],,,,
{8}7hb[4:1]/4hb[4:1],,,3/6,2hb[4:1]/5hb[4:1],,,3x/6x,4x/7x,5x/8x,4x/7x,3x/6x,2hb[4:1]/5hb[4:1],,,,
{8}7hb[4:1]/6hb[4:1],,,8/5,1hb[4:1]/4hb[4:1],,,A8/D8/E8/A7,A6/D6/A5/E6,A4/D4/A3/E4,A1/E2/D2/A2,E7/B6/B7/D7,B2/B3/E3/D3,,
{8}8,1,8<4[4:1],,4>8[4:1],,8V24[4:1],,4<3[2:1]b,,C1hf[2:1],,,,,,
{8}3x/4xV28[4:1],5h[4:1],D3,,5V71[4:1],4h[4:1],D7,,2-5-7[4:1],5,7-4-2[4:1],,C1,,
{8}8x-5[8:1]*pp8[8:1],,,,6x/3x,,5pp7[8:1]/4qq2[8:1],,,,
{8}5,3,2h[2:1]/4p8[8:1],,4x<7[8:1],,,,4,5h[8:3],D3,E3,C1,E7,D7,,6x,5x,4h[4:1],,D7,E7,C1,E3,D3,,
{1}1xv8v1[2:1]/2xq7p2[2:1],
{8}5/4p2[4:1],,,,C1f,,5,4,1h[8:1]/3h[8:1],,4,5,8h[8:1]/6h[8:1],,5V31[4:1],3-8[8:1]b,,,,7,6-8[8:1]/5-8[8:1],,,,
{8}1qq1[16:3]*pp1[16:3],,,,E4/B4/E5/B5/E6,,2,7,1,8,2-6[8:1]/7-3[8:1],1/8,C1f,,4x,
{32}6hx[8:7],,,,A2,E3,,,,,,,D2,E2,,,,,,,D1,E1,,,,,,,D8,E8,,,,,,,3hx[4:3]/A7,B7,,,,,,,A8,B8,,,,,,,A1,B1,,,,,,,A2,B2,,,,,,,
{8}8qq8[4:1],,1pp1[4:1],,,,5x,5x,1/5,8/4,1-4[8:1]/5-8[8:1],8/4,1b/5b,,
{4}2<7>2<7>2[8:13],8h[2:3],,,,,,,7>2<7>2<7[8:13],1h[2:3],,,,,,,3<6>3<6>3[8:13],5h[2:3],,,,,,,6>3<6>3<6[8:13],4h[2:3],,,,,,,
{8}2>5>2>5>2[8:13],,,,E7,E8,,,C1,,,,E8,E7,,,6<1<6<1<6[8:13],,,,E3,E4,,,C1,,,,E4,E3,,,1>5>1>5>1[8:13],,,,7,8,,,8,,,,7,6,,,
{8}5h[4:1],1,1>5[4:1],,5<1[4:1],,1>3-5[4:1],,5<7-1[4:1],,1q8[8:3]*>8[8:3],,,,,,,,
{24}6hb[1:4]/1x,C1f/B1/B2,,,,,
{4},,,
{32}B4,E5,,,,,,,
{4},,,
{32}E3,B3,,,,,,,
{4},,,
{32}D2,E2,,,,,,,
{8},,,,,,1-4[8:1],,
{32}E1,C1f,E5,,,,,,
{8}7v4[4:1],,4<7[4:1],,3h[8:1],,2h[8:1],,
{16}1,8,1,,7-5[8:1]*-4[8:1],,,,
{8}7,,2-7[8:1]*-8[8:1],,2,,4p8-6[4:1]/3-1p5[4:1]b,,3b/4,,,,C1f,,
{8}3-1[8:1],4h[8:1],3b,,6-8[8:1],5h[8:1],6b,,2V47[4:1],5,7V52[4:1]b,8,1,8,7x-3[8:1]*-4[8:1],,7b,,
{8}1qq1[16:3]*pp1[16:3]b,,,,C1/B3/B6,,4pp6[8:1],2h[4:1],4,,1v4[8:1]*v6[8:1]b,2/8,1b,,5x,5hx[8:3],E8,B8,B1,E2,A2,,1s5[4:1]/8z4[4:1]b,,,,,,
{8}6/4,5,6xq3p6[2:1]b/7x>2<7[2:1],,,,,,,,5q5[2:1]/4>6[2:1]b,,,,,,,,8-5[8:1]*z4[8:1],,,,2pp4[8:1]*-7[8:1],,,,6,5,
{8}3,4h[2:1],3,2,1,8,7pp3[1:1],,6h[8:1],,5h[8:1],,4h[8:1],,3pp7[1:1],,,,2h[8:1],,1h[8:1],,8h[8:1],,
{8}1V37[4:1],,6,,5<8[8:1],,4,,2>5[8:1],,1,,4hx[1:2],,3V57[2:1],3,3,,,,,,E8/B7/B8,,E8/B7/B8,,E8/B7/B8,,
{32}B6,B5,B4,E4,
{8},,,7xpp2[2:1],,5h[8:1],,4h[8:1],,3h[8:1],,2xqq7[2:1],,3h[8:1],,4h[8:1],,5h[8:1],,
{8}7-5[8:1]/8-4[8:1],,7/8,,1-4[8:1]/2-5[8:1],,1/2,,2-6[8:1]/8-6[8:1],,8-4[8:1]/2-4[8:1],,,,,,
{32}Ch[4:3]/A7,B7,,,,,,,A8,B8,,,,,,,A1,B1,,,,,,,A2,B2,,,,,,,
{8}7x-4[8:1],8xpp3[8:3],7,8,5x,,5b,,1h[4:1]/3h[4:1],,,,8h[4:1]/6h[4:1],,,,1/5,2/4,1/5,2/4,1qq7[8:1]/5pp7[8:1],,1b/5b,,
{16}2v5[8:1],,,,1/2,,,,6,,4,5,3,,2/5,,7-4[8:1],,7,,1pp5[2:1],,1,,,,4,,5,,6,,
{16}7v4[8:1],,,,7/8,,,,3,,5,4,6,,4/7,,3h[8:1],,E6,,2h[8:1],,E5,,1h[8:1],,E4,,8h[8:1],,E3,,
{16}6v1[8:1],,5,,6,,,,2x/8xv5[8:1],,3,3,8x,,2,,1>4[8:1],,8,,7<4q8[8:3],,7,,,,8,,1,,2,,
{16}3v8[8:1],,7,,3,,,,1xv4[8:1]/7x,,6,6,1x,,8,,
{8}3/7,4/8,3-8-2[16:3]/7-4-6[16:3]b,4/8,3x/7x,,A8/E8/B7/B6/E6/A5/D1/A1/D2/E2/C1f/B3/A3/D4/A4/D5,
E
