&title=……已至
&artist=炉芯终曲
&first=0
&des=Amiya vs Misaka
&lv_5=14
&inote_5=(146)
{1}
,,,,
{4}
5h[4:8],,,,,,,,
{4}
4h[4:11],,,,,,7<2[4:5],,,,,,
{4}
4<4[4:6]*V68[8:6],,,,,,,,
{32}
6h[4:7],,,,,,,,4,3,,,,,,,,,,,3,2,,,,,,,,,,,3,4,,,,,,,,,,,2,1,,,,,,,,,,,2V86[6:7]*<4[4:7],3,,,,,,,
{4}
,,,,,,,,
{32}
4h[4:8],,,,,,,,6,7,8,,,,,,,,,,7,8,1,,,,,,,,,,7,6,,,,,,,,,,,5,,,,,,,,,,,,,,,,,,,,
{4}
3V57[4:3]*<7[4:3],,,,
{8}
,,6h[4:3]/1,2,,3,,4,
{32}
5h[4:8],,,,,,,,6,7,8,1,,,,,,,,,7,8,1,,,,,,,,,,8,1,,,,,,,
{4}
,,,2V86[4:11],,,,3h[4:4],,,,
,
{32}
2,,,,,,,,,,,,2,3,,,,,,,,,,,2,3,4,,,,,,
{4}
,,
{24}
2,3,4,8,7,6,
{32}
1b-5[8:1]/5,,,,
{16}
7,,1,,3,3,7,,2,,1/6,,3,,4V68[4:1]/5,,2,,4,,2,3,4,,5,,1/7-4[8:1],,2/8,,
{16}
7,,2,,1/5,,6,,7,,4/8,,3,,2>4[8:1]/6,,,,6,7,8,,,,,,
{64}
2h,4,,,,,,,7,5h,,,,,,,,,,,,,,,
{32}
4-8[8:1]/8,3,2,1,6,,,,
{16}
4,,1-6[8:1],2,3,,1-4[8:1]/4,,2,,1/7,,6,,5V74[4:1],,4,,3/5,,2V48[6:1],,1,,2/5,,6,,
{16}
1/7,,2v5[8:1],,3,,2/4,,,,3/7,,2pp1[8:4]/6pp5[8:4],,2h[16:1]/6h[16:1],,2/6,,,,,,,,,,,,,,,,
{8}
3/6,4,3,2/8,1/7,2,3/5,3,2,1/6,3/7,2/8,
{16}
7/3,6,5,4,3,2,1,8,3,4,5,6,7,8,1,2,3/5,6,7,8,4,3,2,1,
{16}
8,7,6,5,8/4,7,6,5,4/3,,1/2,,8/7,,5/6,,
{8}
3h[8:3]/4,2,1,8,7h[8:3]/4,5,6,8,
{6}
1h[6:1],3h[6:1],5h[6:1],8h[6:1],4h[24:5],
{48}
,,6,,,7,,,
{16}
8/5,4,3,2,8/1,7,6,5,4>1[16:3]/8,7,6,5,8/4,7,6,5,
{8}
4h[8:3]/8h[8:4],,,,,,,,
{24}
2,8,3,7,4,6,5b,,,,,,,,,,,,,,,,,,
{16}
2>5[8:1]/7,,1,,2qq8[8:1]/7,,8q4[8:1],7
,6/2,,5>8[4:1],,6,,8pp4[8:3],,,,,,,,,,
{16}
6,7,8,1,3,2,1,8,
{16}
5/7-4[8:1],,6,,1/7-2[8:1],,2-7[8:1],2,7-4[8:1],,4V61[4:1],,3,,1w5[4:1],,
{16}
,,,,,,,,2,4,3,7,5,6,1,8,
{16}
2,3,4,5,6,7,8/4,1,2-6[8:1]/6,7,8,1,2/4h[4:1],,,,
{16}
5,4,3,2,1,8,7/3,6,1-5[8:1]/5>3[8:1],8,7,6,1/5,,,,
{16}
2,6,2,6,2,6,2,3,4/5,6,7,8,1/5,4,3,2,
{6}
1h[6:1],3h[8:1],5h[10:1],7h[12:1],1h[14:1],3h[16:1],
{16}
2,1,3,8,4,,6h,4,5,3,4h,,
{24}
3h,2,1,6h,7,8,
{16}
2,1,2h,3,2,,7,8,7,6,7,5,6,4,5,3,4,3,1,2,8,,5h,6,8,7,1h,,
{24}
2h,3,4,5/6h,7,8,
{16}
2,1,3h,5,8,,7,4,6,3,8h,2,7h,1,6h,8,
{32}
5h[8:3],,,,,,,,1-5[8:1],8,7,6,,4,3,2,1,,,,,,,,2/7,,,,3h,,4h,,
{32}
5h[8:3],,,,,,,,1w5[8:1],2,3,4,,6,7,8,1,,,,,,,,2/7,,,,,,,,
{16}
1h,5,2,6,3,7,4,8,2,8,2,6,8,6,2,4,1h,2,3,4,7,6,5,4,8,1,2,3,
{32}
8<3[32:5],7<2[32:5],6>1[32:5],5>8[32:5],4>8[8:1]*V28[8:1],,,,
{4}
8b-4[4:7],,,,2h[8:3],,,,
{4}
1,,6,8,,4,,,,,
{8}
5,3,2,,,,,,
{8}
3h[4:1]/6,,,6,4h[4:1]/7,,,7,3h[4:1]/8,,7,7,2h[4:1],,6,,3h[4:2]/5,,,5,6,7,4h[8:1]/6v4[4:2]*V84[4:2],5,6,,,,,,,,
{8}
6h[4:1]/3,,,3,5h[4:1]/2,,3,3,6h[4:1],,,7h[4:1],,,8h[8:1],,7h[4:2]/3,,,3,1,2,5h[8:1]/3V15[4:2]*V15[4:2],2,3/6V84[8:3],,,,,,,,
{8}
2h[4:2]/7,,,7,6,,3h[8:1],6,4h[4:2]/5,,,,,,5h[8:1]/4,3,6h[4:2]/2,,,3,,,7h[8:1]/4v1[4:2],3,4v7[4:1],,,,,,5h[8:1],6h[8:1],
{8}
7h[4:2],,5,6,8h[4:2],,6,7,1h[4:3],,4,3,2,8,7h[8:1],6h[8:1],5h[8:3],,,7,,,4qq3[4:2]/5pp6[4:2],,,,,,,,
{24}
1-5[8:1],8,1,8,1,8,
{16}
1b-3[8:1],,6,,1-5[8:1],,5V38[4:1],5,1,,7,,6,,5,,
{16}
4-6[8:1],,2,,4v1[8:1],,1V75[4:1],1,4,,2,,3,,4,,
{16}
3>8[8:1],,6,,3,,7pp3[8:6],6,5,,4<2[8:3],,5,,4,,
{16}
,,,,,,,,1/5,4,3,2,1/8,2,3,4,
{16}
5/7-3[8:1],,8,,5/7>3[4:1],,5,6,7,,4,,5,,6,,
{16}
5v2[8:1]/7,,4,,5V38[4:1]/7,,7,6,5,,2h[8:1],,,,2,,
{16}
1-6[8:1]/7,,2/8,,1V35[4:1]/3,,3,2,1/5>1[4:1],,6,,7,,8w4[8:1],,,,,,,,,,1,8,1,8,
{24}
2,3,4,7,6,5,
{16}
2,4,2,4,2,4,
{24}
2,3,4,5-1[8:1],6,7,8,1,2,3/5,,,,,,
{24}
4v7[8:1],5,6,7,8,1,2/4,,,1,2,3,4v1[8:1],5,6,7,8,1,2/4,,,,,,
{16}
7,8,7,8,5,4,5,4,
{32}
1,8,7,6,,,,,2,3,4,5,6,7,8,1,
{32}
2v5[8:1],,,,8,7,6,5,2>2[4:1],,,,6,7,8,1,2,,,,,,,,3,,,,4,,,,
{16}
5,6,4,7,3,8,
{24}
2,1,2,1-5[8:1],2,1,2,1,2,1,,,,,,8-4[8:1],7,1,7,1,7,8,,,6,7,8,1,2,3,4/7,8,1,2,3,4,5,,,
{16}
5,6,5,6,4,7,4,7,
{24}
3,8,3,8,3,8,
{32}
2p8[4:7],1,2,1,2,1,2,1,
{8}
2h[4:1],,,,
{16}
1,1,3,3,5,5,7,7,,,,,,,,,,,,,,,,,
{16}
4/3,,2,,1/7,,6,6,8-3[8:1],,5,,6/8v5[8:1],,7,,8/2,,1,,
{32}
2/6h[4:1],3,4,5,,,,,
{16}
8-6[8:1],,6-2[8:1],,8,,5,,
{32}
4V26[4:1],5,6,7,,,,,
{16}
4/8,,7V53[4:1],,8,,7V13[4:1],,8,,7,,,,4,5,6h[4:1],,,,,,1/3,,5<8[8:1]/7,,,,
{32}
5/4,3,2,1,,,,,
{16}
1/8,,7<4[8:1],7,1,,7>2[8:1],,8,,7,,4,,5>8[8:3],,6,,7/5,,8pp2[4:1],,7,,
{32}
6<1[4:1],5,4,,,,,,
{16}
6,,3qq7[8:3],,2,,3/6>6[8:7],,,,6,,,,,,,,,,5,4,3,2,1,,,,,,,,
{8}
2-5[8:1]*-5[8:1],2,1,8,7-4[8:1],7,4,3,2-5[8:1],1,6v1[8:1]*>6[4:4],7,6,,,,
{8}
4,5,6>6[4:4]*V42[4:2],5,,,,,,,4>2[8:1],5-1[8:1],4-8[8:1],5<7[8:1],4,5,
{8}
1>5[4:1],1,6,7,8V64[4:1],8,4,3,
{6}
2-6[8:7],5h[12:1],1h[12:1],8h[12:1],4h[12:1],
{48}
,,7,,,7,,,
{8}
2,,,4/5,2/7,
{16}
3/6,4/7,5/8,6,7,8,1/5h[8:3],,,,,,1V35[6:1]*V75[6:1],,1,,,,,,,,
{24}
3,4,3,6,5,6,1b,,,,,,
