&title=[疑]
&artist=x0o0x_
&first=0.33
&des=こむぎこ
&lv_5=1
&lv_7=13?
&inote_5=(125)
E
&inote_7=(130){4},,,,,,,,,,,,,,,,1>4[0.9231##0.2308]/5<8[0.9231##0.2308],
8/4,1/5,1-3[8:1],
1/8-4[8:1],8/7-5[8:1],7,4/1,
5-2[1.3846##0.2308],1-6[8:1],1,5/3V14[2:1],
3,3pp4[4:1],{2}3,
4h[4:1]/3h[4:1],6h[4:1]/5h[4:1],
{4}7<5[0.9231##0.2308]/8-4[1.8462##0.2308],1-5[1.3846##0.2308]/2>4[0.9231##0.2308],7,2,
8/1,2h[4:1]/1-5[0.9231##0.2308],8h[4:1],1,
6v1[0.9231##0.2308],4v1[8:1],6/4,7pp2[2:1],
{2}7/3<6[0.9231##0.2308],{4}3,8p3[1.3846##0.4615],
4p7[0.9231##0.4615],5/1,{2}4/8,
{4}5-8[2.7692##0.1154]/1-4[2.7692##0.1154],6/2,3/7,8/4,
7/3,6/2,{6}1/5,{12}3p6[2.4615##0.4615],7>2[2.3077##0.4615],,,{2}5h[4:1]/3h[4:1],
4h[4:1]/6h[4:1],
3/7,5h[4:1]/4h[4:1],
{4}8pp2[1.8462##0.4615]/4pp6[1.8462##0.4615],7/3,6/2,5/1,
{2}4/8,{4}1v3[8:1]/5v7[8:1],5/1,
{2}5b<4[0##0.6923]*pp4[0##0.6923],5h[4:1]/4h[4:1],
{4}2/1>4[0.9231##0.2308],7/8<5[8:1],8/1,5/4,
5/6<3[1.8462##0.4615],6h[2:1],5q4[0.9231##0.4615],4,
{12}6/5,,,,,7,{6}8-4[0.7692##0.3077],{12}2,1qq3[8:3],,8,
1,,,,,4,{4}4h[4:1],3,
6>3[8:1]/3pp6[0.9231##0.9231],6,3,7-4[2.3077##0.2308],
8h[4:1],2-5[1.3846##0.2308],1h[4:1],8,
7/2,{12}8/1,,4/3,{6}3/4,{12}6/5,5/6,,5/4,
{4}5p1[0.9231##0.2308]/4>1[0.9231##0.2308],1p5[0.9231##0.2308]/8<5[0.9231##0.2308],5/4,1/8,
{12}5-8[0.9231##0.2308],4,3,2-7[0.9231##0.2308],,,5,4,3,2,,,4-1[0.9231##0.2308],
5,6,7-2[0.9231##0.2308],,,4,5,6,7,,,8>3[0.9231##0.2308]/4<7[0.9231##0.2308],
7/3,6/2,1/5,,,{4}8/4,7-2[8:1]/2-7[1.3846##0.2308],
7/5,6/3,2/4,5v3[0.9231##0.4615]/6V82[1.3846##0.4615],
7/4,5,6,3-6[8:1],
3/7-2[8:1],7/3<6[8:1],3/7-3[8:1],7/2q5[2:1],
2/1V75[4:1],1,,2V48[1:1]/1-5[8:1],
{2}2/1,{4}6-3[8:1],6,
4pp7[0.9231##0.9231],8pp6[2:1],{2}8/4,
{12},,,8p4[8:1]/1q5[8:1],,7/2,{4}8/1,5V71[8:1],
5/1V35[8:1],1,8qq6[8:1]/1q5[8:1],8/1,
3z7[6.4615##1.3846],5h[4:1]/4h[6:1],,4h[4:1]/3h[6:1],
,5h[6:1]/4h[4:1],,6h[6:1]/5h[4:1],
,5h[4:1]/4h[6:1],,5/4,
6/5,5/4,{2}3/4,
{12},,,,,,,,,,,,8b-5[0##0.2308]/1b-4[0##0.2308],
,,,,3-8[1.0769##0.2308],{4}4-8[1.3846##0.2308],5,
3/5-8[0.9231##0.2308],4/6,5/7,6<3[1:1],
6/4-1[8:1],4,8-5[8:1],8,
{12}6b<3[0##0.4615],,,,,6,{4}2q7[0.9231##0.4615],5/4,
{12}2/6bq3[0##0.4615],,,,,6-1[1.0769##0.2308],{4}5-1[1.3846##0.2308],4,
6/4-1[0.9231##0.2308],5/3,4/2,5/4,
8-5[8:1]/5-8[1.8462##0.2308],8/3,1-4[8:1]/4-1[0.9231##0.2308],1/6,
5/4,7/2,1bpp1[0##0.4615],8bqq8[0##0.4615],
{2}1b>8[0##0.6923]*pp8[0##0.6923],8h[4:1]/1h[4:1],
{4}2/1V35[0.9231##0.2308],6/5V71[8:1],5/1,5/4,
8/7v4[1.8462##0.2308],8/1,1/2v5[1.3846##0.2308],8-4[1.3846##0.2308]/1-5[1.3846##0.2308],
7,2,8/1,7/2,
{12}5b-8[0##0.2308]/4b-1[0##0.2308],,,,,2-5[1.0769##0.2308],{4}1-5[1.3846##0.2308],8,
2/8-5[0.9231##0.2308],1/7,8/6,2-6[8:1]/1-4[1.8462##0.2308],
2/8-5[1.3846##0.2308],7-3[8:1],7,1/8,
8-3[0.9231##0.2308]/5-2[1.3846##0.2308],4-7[0.9231##0.2308]/1-6[8:1],8/1,5/4,
3h[4:1]/4-8[1.3846##0.2308],5,6/5-1[8:1],5/4,
{12}5-8[1.3846##0.2308],4,3,2-7[8:1],,,2,3,4,5,,,4-1[1.3846##0.2308],
5,6,7-2[8:1],,,7,6,5,4,,,7-3[0.9231##0.2308],
8-4[1.2308##0.2308],1-5[0.6154##0.2308],2-6[0.9231##0.2308],,,{4}7/1,8/2,
{12}1-4[8:1],2-5[0.3077##0.2308],,{4}2/1,{12}8-5[8:1],7-4[0.3077##0.2308],,{4}7/8,
{12}8-5[8:1],1-4[1.2308##0.2308],2,8/3-6[8:1],,,{4}3,1,
{6}8-6[1.5385##0.1538],1-5[0.9231##0.1538],2-4[0.3077##0.1538],2,1,8,
{4}3-6[8:1],3/7-2[0.9231##0.2308],3-6[8:1],7/3,
{1}3b-6[0##0.2308],
E
