&title=FEHLT(DEEMO edition)
&artist=アリスシャッハと魔法の楽団
&first=0
&des=Mariotoriet
&lv_5=14
&inote_5=(180)
{1},
{4},,,,
{4}
8h[4:13],,3,2>5[16:4],,,5,6>3[16:4],,,
2,3,4,5v4<1[16:12],6,7-2[32:9],,,
3h[4:1],4h[4:1],5h[4:1],6-1[16:5],,,5-1-4-7-2[16:16],1,4,7,,,
{32}4h[32:1]/5h[32:1],,,,,,,,,,,,,,,,
{4}
2/1s5[16:7],3-5[32:6],,,65,7-5-8[16:5]/4,,,3-1-4[16:5]/1,8,7,6v4-6[16:9],{32}B1,E2,,,,,,,,,,,,,,,{4}2h[8:4],,
1-3-5-7-1[4:3],,,,C,,{32}3b,7bh,,,,,,,{4},
6,8,1,3,4pp5[32:16],,{32}B2`E3,,,,,,,,{4},
{4}6,7,2,3,4pp6[32:15],,A3,,
6,8,1,3>8b[32:4],
{16}5b,,,,7,,5,6,5,,8-5[8:1],,1,,,,3-8[8:1],,4,,,,4,5,6-3[8:1],,7,,,,1,,
1h[8:1],,5h[8:1],,2h[8:1],,6h[8:1],,3,4,5-3[32:3],,7h[8:1],,5,,6h[8:1],,2h[8:1],,5<8[8:1],,1>4[8:1],,,,,,,,
8,,3/5b,,,,2,,4,3,4,,1-4[8:1],,8,,,,6-1[8:1],,5,,,,5,4,3-6[8:1],,2,,,,8,,
8h[8:1],,4h[8:1],,7h[8:1],,3h[8:1],,6-2[16:2],,2-6[8:1],,,,,,3h[8:1],,7h[8:1],,4<8[8:1],,8>3[8:1],,,,,,
5-2[8:1],6,7,8,5,,,,8h[8:1],,1h[8:1],,7,8,6,,3-1[32:3],,,,4h[8:2],,,,8h[8:1],,7h[8:1],,1,8,2,,6-8[32:3],,,,5h
[8:2],,,,1h[8:1],,2h[8:1],,8,1,7h[8:1],,4h[8:1],,6,5,7h[8:1],,8h[8:1],,6h[8:1],,4,5,3h[8:1],,4h[8:1],,3-8[8:1],6,3,6,3b,,,,
7h[8:2],,,,1>4[32:4],8,1,,6h[8:1],,,,7<4[32:4],8,7,,3h[8:1],,,,2b-7b[8:1],,6b-3b[8:1],,,,,,8-4b[8:1],,,,6,,7-2[8:1],,3-6[8:1],,,,,,1-5[8:1],8,7,,1,,6h[8:1],,4h[8:1],,7p2[32:5],6,5,,,,,,
8b,,,,3h[8:1],,4h[8:1],,2-5[8:1],5,2,,7,,8,,1-6[8:1],6,1,,4,,3,,2-6[16:2],4,2,,6,,7,,8h[8:1],,
5h[8:1],,7h[8:1],,4,5,2h[8:1],,4h[8:1],,3h[8:1],,5p4[16:5],4,6,,,,8,,,,6,,3,,5-8[8:1],4,5,4,
5b,,,,3<5[32:3],,2,4,3,,8,,7>1[32:3],,6,5,7,,4,,3<5[32:3],1,2,,3-1-4[8:2],,,,8-5[8:1],,,,
8,,,,3,,2,4,3,4,2,,35,,6,5,7h[8:1],,8h[8:1],,6h[8:1],,1,7,2,8,3h[8:1],,4h[8:1],,2,,35,,6,,75,,8,6,8,6,8,,1h,3h,1h,3h,
{4}1<2[8:12],,5h[4:6],,,,,,8<1[8:12],,4h[4:6],,,,,,6q7[8:8],,5>8[8:8],,,,,,2q3[8:8],,1<4[8:8],,,,E1,,
4>2p6<8q4b[8:8],5,6,,
6<7q4>3p6[8:7],5,4,,
4pp6qq4b[8:6],5,6,,
5qq7[8:4],,
1<3[32:13],,C,,,,
{4}A6,,A3,,{32}5<8[16:7],,,,,,,,{16},,,,2h[8:4],,,,,,,,{32}7,6,5p4b[16:7],,,,,,{16},,,,1b,,,,,,,,
{24}1b-7-4[16:3]/5b,26,37,4/8,,,{16},,,,
{16}3h[8:1],,7h[8:2],,
{32}2x<8[32:3],D3,A3,D4,A4,,,,{16}2x,,6h[8:2],,
{32}1x<7[32:3],D2,A2,D3,A3,,,,{16}1x,,5h[8:2],,
{32}8x,D1,A1,D2,A2,,,,
{24}5b,6,7,8,1,2,3,4,5,6,7,8h[24:6],
{24}1b,2,3,4,5,6,7,8,1,2,3,4,
{32}8b,7,6,5,4,3,2,1,8pp7[32:8],7,6,5,4,3,2,1,
{16}8,,,,5>2[8:1],,,,{16}56,,,,7,8,6,1,5,2,4,3,5,4,6,5,7>2[16:2],,,,{12}47,,,4,3,2,1-5[8:1],8,7,6,,,
{16}6-3[8:1],5,7,5,6b-8p4[8:2],,,,4xqq3[8:2],,,,3x<8[8:2],,,,8xV25[8:2],,,,5x-8[8:1],,,,,,,,
{16}1-4[16:2],,8,,1-6[8:1],,6,6,1-5[16:2],,4,,5qq4[32:7]*-7-4[32:7]/1,,,,,,,,,,5,,3h[8:1],,6h[8:1],,4,3,2,1,
4b<7b[8:1],,,,1>4[8:1],,1,,5b<8b[8:1],,5,,2>5[8:1],,2,,
{24}6b,7,8,1-4-8[8:2],2,3,4,5,6,{16}7qq2[32:11],,,,,,,,,,
{16}3b,,,,,,,,
{16}4q1<8<7<6>5>4[16:14]/3h[8:2],,,,,,,,2h[8:2],,,,,,,,1h[8:2],,,,,,7,8,6-2>3-7<6[16:15],,,,,,,,1h[8:2],,,,,,,,4h[8:4],,,,,,,,
{32}A7,B7,C,B3,A3,,,,A2,B2,C,B6,A6,,,,
{16}
1bx>4[16:4]/8bx,,,,4<7[16:4],,,,7>3[16:5],,,,
3,,,,5-2[8:1],,,6,5,,7h[8:1],,1b-5b[16:2],,,,,,,,
8bx<5[16:4],,,,5>2[16:4],,,,2<6[16:5],,,,
6,,,,4-7[8:1],,,3,4,,2h[8:1],,8bqq4b[16:15],,,,,,,,
3,,,,2,,,,1,,,,
8-3[8:1],,,,
{8}4b>1[8:1],6-2[8:1],4,6b,3V14[16:3],8,3b,,6,5,4,3,{16}8h[8:1],,2,1,3,1,4,1,
5h[8:1],,7h[8:1],,8h[8:1],,7h[8:1],,1-4[32:4],8,2,,3pp6[8:3],,,,{8}5,6,7,8,1,2,{16}
8-4[8:1],1,8,1,
{8}8b<5[8:1],3-8[8:1],8,3b,6-8-5[16:3],1,6b,,3,4,5,6,{16}1h[8:1],,7,8,6,8,5,8,
{8}4h[8:1],3h[8:1],4h[8:1],5h[8:1],6h[8:1],5h[8:1],{32}A7,E7,B6,B5,B4,B3,E3,A2,
{8}1v8[8:1],,,,6h[8:1],3h[8:1],{16}6>3[8:1],3,6,3,
{8}6b,2-6[8:1],7,2b,1<6[8:1],5>2[8:1],1b,5,8-4[8:1],3,8,1,{16}6,,3,4,
2>5b[32:4],4,1,4,2<7b[16:2],,7,,2,,4,,5-1b[32:4]/2,3/6,4/7,,,,8,,7>2[8:1],,6,,5,,4<7[8:1],,3,,2,,,,3h[8:1],,
{24}2b-5b[8:1],1,8,7,,,,,,1b>4b[8:1],8,7,6,,,,,,8b-3b[8:1],7,6,5,,,,,,7b>2b[16:2],6,5,4,,,,,,,,,
{16}7,6,5,2,3,4,
6>3[8:1],,7,,8,,1<6[8:1],,2,,3,,4-8[8:1],,,,5b,,6h[8:1],,1h[8:1],,7h[8:1],,2h[8:1],,8h[8:1],,{24}3,7,3,7,,,
{12}
2,1,8,3,4,5,
63,4,5,2,1,8,
72,1,8,3>7[32:7],4,5,6b,,,{24}5qq1b[32:12],4,3,2,1,8,
{24}7b,,,,,,{16},,,,
{16}7h[8:1],,2h[32:4],,
{32}8x-2[32:4],D8,A7,D7,3-5[32:3],,,,{16}8x,,3x,,
{32}7x-1[32:4],D7,A6,D6,2-4[32:3],,,,{16}7x,,2x,,
{32}5hx[8:2],,,,,,,,
{24}1b,2,3,4,5,6,7,8,1,2,3,4h[24:6],
{24}5b,6,7,8,1,2,3,4,5,6,7,8,
{32}4b,3,2,1,8,7,6,5,4p2[32:9],3,2,1,8,7,6,5,
{16}4,,,,7-3[8:1],,,,{16}87,,,,2,4,3,5,4,6,5,7,
4,8,3,1,4x/8x,5,6,7,8x/4x,1,2,3,
{12}7h[12:1],5h[12:1],6h[12:1],1<6[8:1],4h[12:1],3h[12:1],1,,,
{16}3<6[8:1],4,2,5,3b>8[32:4],,8,,3,,4,,2-4-8[16:3],,,,21,,6-8-4[16:4],,,,65,,3,,,,
{16}2-5[16:2],,5,,2,,1,1,6-3[16:2],,8,,6,,7,,4-1[16:2],,1,,4,,5,5,2-5[16:2],,4,,6,7,8,1,
4b>1b[8:1],,4,,7-4[8:1],,7,,3b>8b[8:1],,3,,6-3[8:1],,6,,
{24}3b,2,1,8-4[32:3],7,6,5-1[8:1],4,3,{16}2pp6[32:11],,,,,,,,,,
{16}8b,,,,,,,,
{16}8q6>5>4>3>2<1<8[16:15]/6h[8:2],,,,,,,,8h[8:2],,,,,,,,6h[8:2],,,,,,2,5,3>2z6<7s3[16:17],,,,,,,,8h[8:2],,,,,,,,4h[8:4],,,,,,,,
{32}D2,A2,D3,A3,D4,A4,,,D8,A7,D7,A6,D6,A5,,,
{16}
6bx<2[16:5]/3bx,,,,1>5[16:5],,,,5<8[32:6],,,,
8,,,,1-6b[16:2],,,2,,,2,,5bx-8[16:2],,,,4,,,,
3bx>7[16:5],,,,8<4[16:5],,,,4pp3[32:11],,,,
1,,,,8h[16:8],,,,2,,3,,4b<7[16:2],,3,,2,,1,,
8-4[8:8],,,,2,,,,4,,,,6,,,,,,,,
{16}E7,,,,E6,,,,,,E3,,E4,,,,,,,,5`4,,,,,,A5,A6,A7,,,,1,,,,2,,,,3,,A2,A3,A4,,,,,,7,6,5,,2,,3-7[8:1],,4,,5pp2>8b[8:14],,
&inote_6=(180)
{1},,
{8}27,,,,6,,5,,
42,,,,5,,3,,
64,,,,5,4,3,,
3,4,2,5,1,,86,,
3h[8:2]/4,,,,7h[8:2]/5,,,,
2h[8:2]/4,,,,8h[8:2]/5,,,,
2q5[8:5]/5,,,,,,,,
7<2[8:4],,,,1,,,,
{8}7h[8:4]/5,5,,,1,,43,,
5h[8:2],,6h[8:2],,7h[8:2],,8h[8:2],,
1h[8:2],,2h[8:2],,3h[8:2],,4h[8:2],,
5>7[8:4],,,,6,,5,,
4h[8:2]/6,6,,,8h[8:2],,2,,
3,,7,6,5/1-5[8:2],,,,
6,,7^4[8:2],,4p2[8:4],,2,,
3h[8:4],,,,1-5[8:2],,5,,
6,,7^4[8:2],,4p2[8:4],,2,,
3h[8:4],,,,1-5[8:2],,5,,
6,,7-3[8:2],,3,,1w5[8:1],,
{16}1b,,,,2,,2h[8:2]/8,,,,4,,2,,6,,
3,,7^5[8:1],,81,,2,3,4,,,,8,,1,,
6-4[8:1],,4,,3,,2-5[8:1],,5,,6,,
7-4[8:1],,3,,2,,1-5[8:1],,6,,7,,
8,,8h[8:2],,,,1,1,
7b,,,,6,,6h[8:2]/1,,,,5,,7,,3,,
6,,2^4[8:1],,18,,7,6,5,,,,2,,8,,
3-1[8:1],,4,,5,,6-1[8:1],,5,,4,,
3-8[8:1],,7,,6,,5-1[8:1],,2,,3,,
4,,4,,7,5,7,5,
8b-4[8:1],,,,1,,2,,3v6[8:1],,,,6,,,,
8-4[8:1],,,,1,,2,,3-6[8:1],,,,6,,,,
8-4[8:1],,,,1,,2,,3-5[8:1],,,,5,,,,
7-1[8:1],,,,3-7[8:1],,,,6h[8:2],,,,2,1,2,1,
3b-1[8:1],,,,7,,6,,5-7[8:1]/8-4[8:1],,,,5,,,,
3-1[8:1],,,,7,,6,,5-2[8:1]/8-4[8:1],,,,5<1[8:2],,,,
1>5[8:2],,,,5,,,,1-5[8:1],,,,5,,,,
6,,7,,28,,3,4,3,,1,,6,5,6,5,
7b-4[8:1],,,,2,,1,,8v3[8:1],,,,4^7[8:2],,,,
7^2[8:2],,,,2^5[8:2],,,,5,,,,1^6[8:2],,,,
6^3[8:2],,,,3^8[8:2],,,,8V64[8:2],,,,4p2[8:3],,,,
8h[8:2],,,,,,,,6,,6,,2,4,2,4,
1b^6[8:1],,,,7,,,,8-3[8:1],,,,2,,,,
1-5[8:1],,,,6,,7,,8-4[8:1]/4-2[8:1],,,,4/8,,,,
1-6[8:1],,,,7-4[8:1],,,,3-8[8:1],,,,5pp2[8:4],,,,
4h[8:4],,,,,,,,,,,,3,,3,,
7,,8,,12,,3,4,3,,56,,7,8,7,8,
1b>6[8:26]/6,,,,,,,,5h[8:1],,,,,,,,
5h[8:1],,,,,,,,4h[8:1],,,,,,,,3h[8:1],,,,,,,,3h[8:1],,,,,,,,
2h[8:1],,,,,,,,1h[8:1],,,,,,,,
7>5[8:26]/1,,,,,,,,4h[8:1],,,,,,,,
5h[8:1],,,,,,,,6h[8:1],,,,,,,,7h[8:1],,,,,,,,7h[8:1],,,,,,,,
8h[8:1],,,,,,,,1h[8:4],,,,,,,,
5qq2[8:12],,,,,,,,8,,,,,,,,7,,,,,,,,6,,,,,,,,
4pp8[8:12],,,,,,,,3,,,,,,,,2,,,,,,,,1,,,,,,,,
8bz4[8:12],,,,,,,,,,,,,,,,,,,,,,,,,,,,,,,,
3h[24:1],,,,,,,,,,,,,,,,7,,,,,,,,8h[8:4]/2h[384:1],,,,,,,,
5b>1[8:2],,,,6/5,,,,7-4[8:1],,7,,1-5[8:1],,1,,
7^2[8:1],,,,3-6[8:1],,,,8h[8:2],,,,2^5[8:1],,,,
8/2b,,,,1>5[8:1],,,,1b/7,,,,8>6[16:4],,,,
7/8b,,,,1h[8:2],,,,3,,82,,7,,65,,
{24}3,4,3,4,3,4,{16}2-8[8:1],,,,7-3[8:1],,,,1p4[8:1],,,,
4^6[8:1]*^2[8:1],,,,,,,,{12}3,4,2,6,5,7,
{16}4-2[8:1],,,,6/4,,5,,4-6[8:1],,,,4/1,,2,,
37,,4,,65,,8,,64,,3,4,1-4[8:1],,,,
7-3[8:1]/1,,,,5v2[8:1]/7,,,,8-4[8:1]/5,,,,1p3[16:3],,,,
17,,,,5,,5,,64,,7,,2,8,2,,
7b/1b,,6,,28,,3,,71,,5,,28,,4,,
53,,2,,64,,7,,34,,12,,7-3[8:1],8,7,8,
7V51[8:4],,,,,,1,,1,,,,2-5[8:2],,,,
5-8[8:2],,,,8-3[8:2],,,,3,,,,7-4[8:2],,,,
4-1[8:2],,,,1-6[8:2],,,,6-3[8:2],,,,3V51[8:3],,,,
2h[8:2],,,,,,,,3,,2,2,8-4[8:1],,,,
{8}8/3,,1^4[8:2],,4q5[8:3],,6,,
{16}8,,,7,,,6,,{8}5/3h[8:2],,8-4[8:1],,
3/8,,2^5[8:2],,5q6[8:3],,7,,
{16}6,,,7,,,8,,{8}8/2h[8:2],,4V62[8:6]*z8[8:6],,
,,,,,,,,
{32}8b/1b,27,36,45,{16},,2h[8:1],,4,,3h[8:1],,1,,2/8q4[8:1],,,,
7/8,,6,,5,,6^8[8:1],,45,,3,2,1,,1,,
8^3[8:1],,7,,6,,5^8[8:1],,4,,3,,2^5[8:1],,1,,
8,,7^2[8:1],,6,,5,,4h[8:2],,,,{24}2,4,2,4,2,4,
{16}1b-7[8:1],,,,2,,3-8[8:1],,,,4,,5v2[8:1],,,,
6,,7,,8,1,8,,2,,3,,64,,7,8,
7h[8:2],,6,,5,,4h[8:2],,3,,2,,{24}1q5[8:1]*p5[8:1],5,1,5,1,5,
{16}1b,,,,,,,,34,,56,,7,8,7,,
1b-5[8:1],,6,,1,,7-3[8:1],,2,,7,,1h[8:2],,,,
3,,24,,5,,7^4[8:1]/4,,8,,1,2,3,,3,,
4-8[8:1],,5,,6,,7-3[8:1],,8,,1,,2-6[8:1],,3,,
4,,5-1[8:1],,6,,7,,8,,8h[8:2],,,,2,,
{32}1h[8:1]/7b,6,5,4,,,,,,,,,
{32}8h[8:1]/2b,3,4,5,,,,,,,,,
{32}1h[8:1]/6b,5,4,3,,,,,,,,,
{32}8h[8:1]/3b,4,5,6,
{16},,2,8,1h[8:1],,7,,4,6,2,8,
5-2[8:1],,7-4[8:1],,5,,7,,1,,82,,37,,64,,
5h[8:1],,7h[8:1],,1,,2,4,3,,54,,{24}7,5,7,5,7,5,
{16}8>6[8:5],,,,,,,,,,,,,,,,
8-5[8:2],,,,,,,,1h[8:2],,,,{24}2,3,4,5,6,7,
{16}8b<3[16:3],,,,8/2,,,,1h[8:1],,7-3[8:1],5,6,,73,,
1^4[8:1],,,,1^6[8:1]/5,,,,15,,,,2^5[8:1],,,,
{32}5/2b,6,7,8,,,,,1^4[8:1],,,,,,,,1b/4,5,6,7,,,,,8^3[16:2],,,,,,,,
4/8b,5,6,7,,,,,8h[8:2],,,,,,,,2,,3,,4,,5,,8,,7,,6,,5,,
{24}1,5,1,5,1,5,{16}1-5[8:1],,,,1/7-2[8:1],,,,4-8[8:1]/7,,,,
4^7[8:1]*^1[8:1],,,,4,,,,{12}3,4,2,6,5,7,
{16}1^4[8:1],,,,5/1,6,7,,1p5[8:1],,,,14,3,2,,
17,,5,,34,,1,,35,,6,5,8V63[8:2],,,,
3/8,,,,2-6[8:1],,1,,8-5[8:1]/2,,7,,8/3>7[16:3],,4,,
63,,,,4,,4,,35,,2,,7,1,7,,
2b/8b,,3,4,5/8,,8,7,62,,2,3,47,,7,6,
5/1b,,1,2,38,,8,7,64,,53,,2-6[8:1],1,2,1,
2V48[8:4],,,,,,8,,8,,,,7-2[8:1],,,,
3-6[8:1],,,,8-5[8:1],,,,4-1[8:1],,,,8^5[8:1],,,,
8^3[8:1],,,,4-6[8:1]*-7[8:1],,,,4-1[8:1]*-2[8:1],,,,4qq8[8:4],,,,
7h[8:2],,,,,,,,6,,5,5,1-5[8:1],,,,
{8}1/6,,8^5[8:2],,5pp4[8:3],,3,,
{16}1,,,2,,,3,,{8}4/6h[8:2],,1-5[8:1],,
6/1,,7^4[8:2],,4pp3[8:3],,2,,
{16}3,,,2,,,1,,{8}1/7h[8:1],5h[8:1],4h[8:1],2h[8:1],
1-5[8:2],,,,{16}7,8,1,2,3,4,5,6,
7/1bw5[8:10],,,,,,,,,,,,,,,,,,,,,,,,,,,,,,,,
{8}3/5h[8:2],,,,,,,,1/5h[8:2],,,,,,,,6,,
