&title=Schwarzer Regen
&artist=regulus
&first=0
&des=塵落南丘
&lv_5=12+
&inote_5=(110)
{1},
{8}6h[4:3],,,2,,,B4,,3h[4:3],,,7,,,B5,,5h[4:3],,,1,,,B3,,4h[4:3],,,8,,,B6,,
{8}6h[8:7]/5h[4:1],,,3h[4:1],,,4hx[8:1],,3h[8:7]/4h[4:1],,,6h[4:1],,,5hx[8:1],,
{8}7h[8:7]/6h[4:1],,,2h[4:1],,,4hx[8:1],,2h[8:3]/3h[4:1],,,7,
{16}1,6,8,5h[16:3],2h[8:1],,,,
{16}4,6,5,7,8h[4:1]/4h[8:1],,,,2-5[8:1]*-7[8:1],,3,8,2x,,,,
{16}5,3,4,2,1h[4:1]/5h[8:1],,,,7-4[8:1]*-2[8:1],,6,1,7x,,,,
{16}2,4,3,5,6h[4:1]/2h[8:1],,,,8p4[8:1]*q4[8:1],,1,6,8x,,,,
{16}3,1,2,8,7h[4:1]/3h[8:1],,,,2,2,6,6,1-4[16:1]/5-8[16:1],,,,
{16}1b/5b,,,,7,3,6,2,5,1,4,8,3q8[8:1]/7q4[8:1],,,,
{16}3b/7b,,,,1,5,8,4,7,3,6,2,1q5[8:1]/5q1[8:1],,,,
{16}1b/5b,,,,8,4,7,3,6,2,5,1,4q1[8:1]/8q5[8:1],,,,
{2}4bq3[8:3]/8bq7[8:3],{4},
{8}2q5[2:1],2<7[8:3],{4},,,
{8}7<3[8:1],7v8[8:1],,,2>6[8:1],2v1[8:1],,,8pp3[2:1],8V64[8:3],,,,,,,
{8}6v5[8:1],6V82[8:1],,,3v4[8:1],3V17[8:1],,,5qq2[2:1],5V71[8:3],,,,,,,
{8}7s3[8:1],7,,,2z6[8:1],2,,,8z4[2:1],8v6[8:3],,,,,,,
{8}3p4[8:1],3,,,6q5[8:1],6,,,{8}1s5[4:1],1,7-3[16:1],7,7b,,,,
{8}2q4[2:1],2x,,,4q6[2:1],4x,,,6q8[2:1]*>1[2:1],6x,,,,,,,
{8}7p5[2:1],7x,,,5p3[2:1],5x,,,3p1[2:1]*<8[2:1],3x,,,,,,,
{8}1q3[2:1],1x,,,3q5[2:1],4x,,,5q8[2:1]*V38[2:1],5x,,,,,,,
{8}1h[4:1],,3h[4:1],,5,7,{16}5,8,4,1,3qq8[2:1]*v6[16:1],,,,
{4}3b<6[4:1],,,
{8}15,2h[8:17]/6h[8:3],,,,,8,7,6,5-8[16:1],,,8x,8-4[16:1],,,3x,3>5[8:3],,
{16},,4,,3,,2,,1,8,7qq4[2:1]*v2[16:1],,,,
{4}7b>2[4:1],,,
{8}51,6h[8:17]/2h[8:3],,,,,4,3,2,1-4[16:1],,,4x,4-8[16:1],,,7x,7<1[8:3],,
{16},,8,,7,,6,,2x/6x,3x/7x,4xv2[4:1]/8xv6[4:1],,,,
{8},,,15,15,,3-8[16:1]/7-4[16:1],3<7[4:1]/7>3[4:1],3b/7b,,,,
{4}4h[4:1]/8h[4:1],,{16}26,,62,37,
{4}4qq5[4:1]/8,8,8qq1[4:1],4,2w6[16:1],2b,
{8}8-4[4:1],,4>1[4:1],,1xv8[8:1],8x<5[8:3],,,5xv4[8:1],4x>8[4:1],
{2},{16}73,,37,62,
{4}5v3[8:1]/1v7[8:1],,5pp4[4:1]/1,1,1pp8[4:1],5,7w3[16:1],7b,
{8}1h[8:1],5h[8:1],2h[8:1],6h[8:1],3h[8:1],7,7s3[8:1],,1-5[16:1],1,
{16}8v6[8:1],,,4,,,4,,7v5[8:1],,,3,,,3,,6v4[8:1],,,2,,,2,,
{4}8qq1[4:1]/4,4,4qq5[4:1],8,6w2[16:1],6b,
{16}1v3[8:1],,,5,,,5,,2v4[8:1],,,6,,,6,,
{16}3v5[8:1],,,7,,,7,,4v6[8:1],,,8,,,8,,5v7[8:1],,,1,,,1,,
{4}2pp1[4:1]/6,6,6pp5[4:1],2,4w8[16:1],4qq1[4:1]*pp7[4:1],4b,
{8},3,3-7[16:1],,5,5z1[8:3],,7,7p4[4:1],,
{4},3,
{8}6h[8:7]/5h[4:1],,,3h[4:1],,,4h[8:1],,
{8}3h[8:7]/4h[4:1],,,8h[4:1],,,6h[8:1],,7h[8:3]/5h[4:1],,,1,
{16}7,2,8,3h[16:3],6h[8:1],,,,
{16}6,4,5,3,2h[4:1]/6h[8:1],,,,8q5[8:1]*p3[8:1],,7,2,8b,,,,
{16}3,5,4,6,7h[4:1]/3h[8:1],,,,1p4[8:1]*q6[8:1],,2,7,1b,,,,
{16}6,4,5,3,2h[4:1]/6h[8:1],,,,8V64[8:1]*V24[8:1],,7,1,8b,,,,
{16}7,5,6,4,3h[4:1]/7h[8:1],,,,6,6,2,2,5qq8[1:1]/1qq4[1:1],,,,
{1},,E
