&title=羊皮紙の上の銀河
&artist=OSTER project
&first=0.06
&des=MD5(f(x))
&lv_5=13+
&inote_5=(196)
{1},
{16}2-5[4:2],,,,,,,,,,,,
7-4[4:2],,,,,,,,,,,,
2<7[4:2],,,,,,,,,,,,
6>3[4:2],,,,,,,,,,,,
1h[4:3],,,,6,,,,7,,,,
8h[8:5],,,,3,,,,,,,,
2h[4:3],,,,5,,,,6,,,,
7h[4:3],,,,4,,,,3,,,,
2V48[4:2],,,,4,,,,8V26[4:2],,,,
7,,,,6V48[4:2],,,,7,,,,
8w4[8:1],,,,,,,,2,3,4,5,6,7,8,1,
2b/6b,,,,,,1,,2,,3,,
4,,5/6>3[8:1],,,,,,2-5[4:1],,,,
5-1[4:1],,,,1-6[4:1],,,,5pp1[8:5],,,,
,,,,4,,4,,3,,3,,
2>6[4:1],,,,6p1[4:1],,,,7,,8b,,,,,,
7,,6,,5,,3,4,3,,2,,3,,4,,
6-4[8:1],,5,,7h[4:1],,,,3-1[8:1],,4,,2h[4:1],,,,
7b-3[8:1],,,,,,2b-5[8:1],,,,,,1,8,7,6,
5-8[8:1],,,,3,,1-4[8:1],,,,1b/7b,,
,,8,7,6qq7[4:3],,,,8,,,,1,,1,,2,,3,,
4b-1[8:1],,,,7,,,,5b-8[8:1],,,,2,,,,
3b<3[4:6]/6b,,,,,,,,,,,,1,,,,
8v5[8:4],,,,,,,,,,,,,,,,
7pp2[8:11]/3,,,,,,,,,,,,3,,,,
4-1[8:3],,,,,,,,,,,,3h[8:1],,,,
4pp7[8:8],,,,,,,,,,2h[8:1],,,,3p8[8:7],,
,,,,,,,,7h[4:1],,,,,,,,
6qq3[8:8],,,,,,,,,,2h[8:1],,,,1qq3[8:7],,
,,,,,,,,,,,,,,,,
5h[4:2],,,,,,,,,,,,2V48[4:2],,,,
2h[8:2],,,,,,3h[8:2],,,,,,4,,,,
8qq4[4:3]/5h[4:1],,,,,,,,3h[4:1],,,,,,,,
1h[4:1],,,,,,24,,,,,,3,,4,,
3q5[4:2],,,,8h[4:1],,,,,,,,7,,7,,
2>5[4:1],,,,5p8[4:1],,,,8>5[4:1],,,,7,,,,
8b,,,,6,,3b/4b-8[8:1],,,,1,,,,,,
5b-1[8:1]/6b,,,,8,,,,3b/5bw1[8:1],,,,,,,,
3b/7b,,,,5,,4,,5,,,,2>7[4:2]/7,,,,
8,,,,7V51[4:2],,,,8,,,,1V36[4:2],,,,
7,,,,6>1[4:2],,,,8,,,,1>6[4:2],,,,
7,,,,8qq3[4:2],,,,,,,,,,,,
1h[8:3],,,,,,5,,,,,,7<2[4:2]/2,,,,
1,,,,2V48[4:2],,,,1,,,,8V63[4:2],,,,
2,,,,3<8[4:2],,,,1,,,,8pp5[4:3],,,,
3h[4:2],,,,,,,,,,,,,,,,
3>8[4:1],,,,4,,5,,6h[4:1],,,,5,,6,,
7>2[4:1],,,,6,,5,,4h[4:1],,,,5h[4:1],,,,
2,,,,4,,5,,3,,,,5,,4,,
36,,,,18,,,,4h[4:1]/5h[4:1],,,,,,,,
2b/5b,,,,1>4[8:1],,8,,7,,6,,5<8[8:1],,4,,
3,,2,,1V38[4:1],,,,7,,6,,5h[4:1],,,,
2h[4:1],,,,4>1[8:1],,5,,6,,7,,8<5[8:1],,1,,
2,,3,,4h[4:2],,5,,6,,7,,8,,7,,
36,2,1,8,7,6,4,3,2,1,8,7,3h[8:1]/6h[8:1],,,,
27,6,5,4,3,2,8,7,6,5,4,3,7h[8:1]/2h[8:1],,,,
46,3,2,1,8,7,3,2,1,8,7,6,5h[8:1]/3h[8:1],,,,
82,7,6,5,4,3,7,6,5,4,3,2,5,6,7,8,
1bw5[4:2]/2b,,,,,,,,,,,,,,,,
3b/7b,,4,,6,5,6,,3,,5,,4,,6,,
5b-8[8:1]/4b,,,,1V73[4:1],,,,6,,,,5-1[8:1],,,,
2>6[4:1],,,,6<2[4:1],,6,,,,5qq7[4:2],,,,1h[4:1],,
,,,,2,,2,,,,,,1-4[8:1]/8,,,,
7>2[8:1],,,,3-8[8:1],,,,7-4[8:1],,,,2<7[8:1],,,,
5-8[8:1],,,,4,,2,,1-4[8:1],,,,5,,,,
7-4[8:1],,,,1,,1,2,3,,45,,36,,27,,
1>3[12:1],,1,,5<7[12:1],,5,,4-1[12:1],,4,,8-5[12:1],,8,,
2>5[12:1],,2,,6<1[12:1],,6,,2,3,4,5,6,7,8,1,
2b/6b,,,,4-1[8:1]/5,,,,8V26[4:1],,,,3,,4>8[4:1],,
,,,,7V51[4:1],,,,4,,2>1[8:3],,,,6h[8:4]/2b,,
,,,,,,,,3-6[8:1]/7,,,,8<5[8:1],,,,
3>8[8:1],,,,4<7[8:1],,,,1,2,3,4,5,6,7,8,
1h[4:2]/5h[4:2],,,,,,,,,,,,,,,,
4h[4:1]/6h[4:1],,,,,,4-6[8:1]/6,,,,,,,,,,
3h[4:1]/5h[4:1],,,,,,4,,6,,,,1,,,,
2h[4:1]/6h[4:1],,,,,,1w5[8:1],,,,1b,,,,,,
4q8[8:1]/3,,,,1-4[8:1],,,,5q1[8:1],,,,2-5[8:1],,,,
6q2[8:1],,,,3-6[8:1],4,5,,8,,7h[8:1],,,,,,
1>4[8:1]/8,,,,4p8[8:1],,5,6,7-4[8:1],,,,3p7[8:1],,,,
6-3[8:1],,,,2,,1,,8-4[8:1],,7,,6,,5,,
2-4[8:1],,1,,,,6-8[8:1],,5,,,,1-5[8:1],,2,,
,,8,,8,7,6,5,4,,26,,,48,,,
7bV51[4:1]/3b,,,,4,,2b,,,,4,,35,,26,,
1-4[8:1]/8,,,,6>3[8:1],,,,2-5[8:1],,2,,8,,,,
7b/1b,,,,4>1[8:1]/5,,,,7q3[8:1],,,,3,,4>8[4:1],,
,,,,6q3[4:1],,,,3,,4>5[8:3],,,,8h[8:4]/4b,,
,,,,,,3,,2<7[8:1]/4,,,,5-8[8:1],,,,
4,,3,,2,,1,8,1,,27,,36,,,,
4>8[4:1]/5,,,,8q5[4:1],,,,5p7[4:1],,,,6,,,,
6h[4:1],,,,,,45,,3,4,3,,7,,4,5,
4pp1[4:4],,,,,,,,8,,,,,,,,
7,,7,,6,,5bw1[8:1],,,,,,,,,,
34,,2,,34,,5,,46,,2,,46,,7,,
18,,2,1,2,,8-4[8:1]/6,,,,2-6[8:1]/8,,,,2/5qq8[8:5],,
,,1,,1,,1,,1,,2,,2,,2,,
3h[4:1]/4h[4:1],,,,,,,,5,,4,,2b/7b,,,,
6,5,4,3,6,5,4,3,6,5,4,3,6,5,4,3,
7,,4,5,4,,2,,8,,47,,25,,1bw5[4:12]/8b,,
,,,,,,,,,,,,,,,,
,,,,,,,,,,,,,,,,
,,,,,,,,,,,,,,,,
