&title=ハートインワンダーランド (Full ver.)
&artist=森羅万象
&first=0
&des=Holinality
&clock_count=4
&lv_6=13
&inote_6=(181)
{1}
,
{1}
,,
{48}
,
{1}
Ch[2:7],,,,
{16}
,,5,,3,,6,,
2,,7,,1<6[8:1]*>4[8:1],,2x/8x,,
{16}
1,,,,,,,,
,,4,,3qq4[8:3]/5pp4[8:3],,4,,
3/5,,,,,,,,
,,6,,4,,5,,
3<5-1[4:1],,,,3/8,,7,,
6pp1<6[4:3],,2,,,,3,,
,,,,,,,,
,,4,,3qq4[8:3]/5pp4[8:3],,4,,
3/5,,,,,,,,
,,5,,6pp5[8:3]/4qq5[8:3],,5,,
6/4,,,,,,,,
,,,,8<4[4:1],,,,
4>8[4:1]/8,,,,8-6-4[4:1],,,,
4-2-8[4:1],,,,8,,,,
3bxqq4[8:3]b,,,,,,,,
5bxpp4[8:3]b,,,,,,,,
{16}
3,,,,7x/4x,,6,,
2/5,,3,,4/7,,6,,
3/8,,2,,1/6,,7,,
2h[4:1]/8,,,,,,5,,
3,,2/4,,3,,6/4,,
5>1[4:1],,,,5/1<5[4:1],,,,
4,,,,,,3,,
4,,,6,5,,,,
,,2,,1,,3h[8:1],,
,,7,,8,,6h[8:1],,
2,,3/5,,7,,6/4,,
5h[4:1],,,,,,2,,
7-5[8:1],,2,,7-3[8:1],,2,,
7,,,,1,,1/7,,
,,2q6[8:1],,8-4[8:1],,2,,
8,,,,,,,,
{16}
6h[8:1],,,,2/5,,3,,
7/4,,6,,5/2,,3,,
7/4,,8,,5/2,,1,,
6h[4:1],,,,,,4,,
6-8-2[4:1],,,,2-8-6[4:1],,,,
4,,4,,3,,3,,
7-4[8:1],,1-5[8:1],,7<1[8:3],,1,,
7x,,,,,,,,
,,7,,8,,6h[8:1],,
,,2,,1,,3h[8:1],,
7,,6/4,,2,,3/5,,
4h[4:1],,,,,,7,,
1-3-5[4:1],,,,1/5-3-1[4:1],,,,
7h[8:1],,,,6h[8:1],,,,
7b-3[8:1],,,,7/1bw5[8:1],,,,
1b,,,,,,,,
{16}
2,,3/1,,7,,8-3[8:1]/6,,
,,8-5[8:1],,,,8,,
2x>4[8:1],,1,,8,,7,,
6<8[8:1],,5,,4,,3,,
6,,7/5,,3,,4-6[8:1]/2,,
,,4-2[8:1],,,,4,,
7x<5[8:1],,8,,1,,2,,
3>1[8:1],,4,,5,,,,
3,,2/4,,6,,5-3[8:1]/7,,
,,5-7[8:1],,,,5,,
2x>4[8:1],,1,,8,,7,,
6<8[8:1],,5,,4,,3,,
,,2-5-3-8[8:3],,8,,2,,
,,7-4[8:1],,,,7,,
,,2v4>8[8:3],,5,,2,,
,,7<4[8:1],,,,7,,
E2,,E3,,E4,,E5,,
E6,,E7,,E8,,E1,,
,,3b,,3b/5b,,3b,,
3b/6b,,,,7bv4<1[8:3]b/2b,,,,
{16}
7b/2b,,,,,,,,
2-6-4-1[8:4],,,,2,,7h[8:5],,
,,,,,,,,
,,,,2>5[8:1],,7,,
8-4[8:1]/2,,,,8,,2x,,
1-5[8:1]/6,,,,1/7-3>5b[4:2],,,,
7bx,,,,,,,,
4bh[4:1],,,,,,3,,
2>5[8:1],,,,2/6,,7p3[8:1],,
,,1-5[8:1]/7,,,,1,,
8-6[8:1]*-5[8:1],,,,8-3[8:1]*-2[8:1],,,,
8,,,,,,6,,
5-1[8:1],,,,5/3,,2q6[8:1],,
,,2/8-4[8:1],,,,8,,
2b>4-8b[16:4],,,,,,,,
7b-5b[16:2],,,,,,,,
2v5[8:1],,3,,2/6<1[8:1],,7,,
6,,4,,3,,2,,
2-8[8:1]/6-4[8:1],,,,2-4[8:1]/6-8[8:1],,,,
2/6,,,,,,,,
7v4[8:1],,6,,7/3>8[8:1],,2,,
3,,5,,6,,7,,
7<4[8:1]/3>8[8:1],,,,7q3[8:1]/3q7[8:1],,,,
7/3,,,,,,,,
5h[8:1],,,,,,4,6,
3,,4/6,,7,,3/5,,2-5[8:1],,
8-4[8:1],,2<4[8:2],,8,,
2,,,,,,6x,,
4x/7x,,3,,2/5,,
6,,5/8,,3,,1/4,,
7,,2b-6[8:1]/8,,3,,8b-4[8:1]/2,,
7,,8b/1,,,,,,,,
{16}
3hx[2:7],,,,,,,,
E6/B5/B6,,,,,,,,
,,,,,,,,
E7/B7/B6,,,,,,,,
,,,,,,,,
A5/E5/E6,,,,,,,,
,,,,,,,,
A7/E7/E8,,,,,,,,
6/4,,,,,,,,
5h[8:1]/3,,,,,,,,
3/5,,,,,,,,
4h[8:1]/6,,,,,,,,
6/4,,,,,,,,
5h[8:1]/3,,,,,,,,
3b/6b,,,,,,,,
,,,,,,,,
{16}
6/4,,5,,5/3,,4,,
6h[8:3]/4h[8:2],,,,,,,,
3/6,,2,,4/5,,7,,
3<6[8:1],,,,3,,,,
8,,8,,1/7,,8,,
2h[8:3]/8h[8:2],,,,,,,,
7/2,,6,,8/1,,3,,
7>2[8:1],,,,7,,,,
,,3/1,,,,8/6,,
,,4/5,,7,,4/5,,
2,,3/5,,6,,1/7,,
2-7[8:1]*-5[8:1],,,,2,,,,
6x,,5x,,7x,,4x,,
8<5[8:1],,,,8/3,,2,,
1-7[8:1],,,,6-2[8:1],,,,
3-5[8:1],,,,,,,,
{16}
3,,4,,3,,4,,
2h[8:1],,1h[8:1],,2,,,,
6,,5,,6,,5,,
7h[8:1],,8h[8:1],,7,,,,
3,,5,,4h[4:1],,,,
6,,5,,6,,5,,
3,,4,,3,,4,,
3<5[8:1],,,,3,,,,
6,,7,,6,,7,,
5-8[8:1],,,,5,,,,
3,,2,,3,,2,,
4-1[8:1],,,,4,,,,
8,,1/7,,2,,3/5,,
6,,7/4,,3,,2/5,,
1-5[8:1],,,,7-4[8:1]*-2[8:1],,,,
7b,,,,,,,,
{16}
B1,,B2,,B3,,B4,,
B5,,B6,,B7,,B8,,
5bxpp7[8:1]*qq3[8:1],,,,5bx-1b[8:1],,,,
5b,,,,8b/2b,,,,
2bh[8:4]/7b,,,,,,,,
7v4<1[8:4],,,,7,,2h[8:5],,
,,,,,,,,
,,,,7<4[8:1],,2,,
1-5[8:1]/7,,,,1,,7x,,
8-4[8:1]/3,,,,8/2-6<4b[4:2],,,,
2bx,,,,,,,,
5bh[4:1],,,,,,6,,
7<4[8:1],,,,7/3,,2q6[8:1],,
,,8-4[8:1]/2,,,,8,,
1-3[8:1]*-4[8:1],,,,1-6[8:1]*-7[8:1],,,,
1,,,,,,3,,
4-8[8:1],,,,4/6,,7p3[8:1],,
,,7/1-5[8:1],,,,1,,
7b<5-1b[16:4],,,,,,,,
2b-4b[16:2],,,,,,,,
7v4[8:1],,6,,7/3>8[8:1],,2,,
3,,5,,6,,7,,
7-1[8:1]/3-5[8:1],,,,7-5[8:1]/3-1[8:1],,,,
7/3,,,,,,,,
2v5[8:1],,3,,2/6<1[8:1],,7,,
6,,4,,3,,2,,
2>5[8:1]/6<1[8:1],,,,2p6[8:1]/6p2[8:1],,,,
2/6,,,,,,,,
4h[8:1],,,,,,5,3,
6,,5/3,,2,,6/4,,7-4[8:1],,
1-5[8:1],,7>5[8:2],,1,,
7,,,,,,3x,,
5x/2x,,6,,7/4,,
3,,4/1,,6,,8/5,,
2,,7b-3[8:1],,1b-5[8:1],,7b>5[8:2],,
1,,7b,,,,,,,,
{16}
E6,E5,E4,,,,,,
,,,,,,,C,
,,,,,,,,
,,,,,,,,
,,,,,,,,
,,,,,,,,
,,,,,,,,
,,,,,,,,
,,,,,,,,
,,,,,,,,
,,,,,,,,
,,,,,,,,
,,,,,,,,
,,,,,,,,
,,,,,,,,
,,,,,,,,
,,,,,,,,
,,,,,,,,
,,,,,,,,
,,,,,,,,
3b/6b,,,,7hx[4:1],,,,
6hx[4:1],,,,5hx[4:1],,,,
2hx[4:1],,,,3hx[4:1],,,,
4hx[4:1],,,,5,,,,
64,,,,4,,6,,
5-1[8:2],,,,5pp2[8:4]*qq8[8:4],,,,
5,,,,,,,,
,,,,,,,,
53,,,,5,,3,,
4h[4:1],,,,2h[4:1],,,,
8h[4:1],,,,6h[4:1],,,,
4h[4:1],,,,2b,,,,
{16}
7<4[8:1],,,,7,,1-5[8:1],,
,,1qq6[8:4]*pp4[8:4],,,,1,,
,,,,,,,,
,,,,37,,,,
2>5[8:1],,,,2,,8-3[8:1]*-5[8:1],,
,,8,,,,,,
17,,,26,,,35,,
82,,,73,,,64,,
,,7pp5[8:3],,,,7,,
,,4,,3,,2>4[8:1],,
,,2/6,,7,,8h[8:3],,
,,,,2,,,,
6h[4:1],,4,,4,,6h[4:1],,
3,,3,,7h[4:1],,2,,
2,,7h[4:1],,1,,1,,
6,,1,,8,,3,,
6h[4:1],,5,,,,4h[4:1],,
3,,,,2h[4:1],,1,,
,,8h[4:1],,7,,,,
7<4[8:1],,,,7/8pp3[8:4],,8,,
,,,,,,5,,
6,,7,,18,,36,,
,,,,,,,,
2v5[8:1],,6<1[8:1],,2,,6,,
,,,,,,,,
3bqq4b[8:10],,7bqq8b[8:9],,3b,,7b,,
,,,,,,,,
,,,,,,,,
,,,,,,,,
,,,,,,,,
1xw5[4:5],,,,,,,,
,,,,,,,,
,,,,,,,,
,,,,E4,,E3,,
E2,,,,E6,,E7,,
E8,,,,C,,,,
3h[8:3]/E8/B7/E7,,,,,,,,
6h[8:3]/E1/B1/E2,,,,,,3,,
2>5[8:1],,,,2/6,,7p3[8:1],,
,,1-5[8:1]/7,,,,1,,
8-6[8:1]*-5[8:1],,,,8-3[8:1]*-2[8:1],,,,
8,,,,,,6,,
5-1[8:1],,,,5/3,,2q6[8:1],,
,,2/8-4[8:1],,,,8,,
2b>4-8b[16:4],,,,,,,,
7b-5b[16:2],,,,,,,,
{16}
2v5[8:1],,3,,2/6<1[8:1],,7,,
6,,4,,3,,2,,
2-8[8:1]/6-4[8:1],,,,2-4[8:1]/6-8[8:1],,,,
2/6,,,,,,,,
7v4[8:1],,6,,7/3>8[8:1],,2,,
3,,5,,6,,7,,
7<4[8:1]/3>8[8:1],,,,7q3[8:1]/3q7[8:1],,,,
7/3,,,,,,,,
5h[8:1],,,,,,4,6,
3,,4/6,,7,,3/5,,2-5[8:1],,
8-4[8:1],,2<4[8:2],,8,,
2,,,,,,6x,,
4x/7x,,3,,2/5,,
6,,5/8,,3,,1/4,,
7,,2b-6[8:1]/8,,3,,8b-4[8:1]/2,,
7,,8b/1,,,,2qq4[8:3],,,,
{16}
2/6h[8:2],,,,,,,,
7,,,6/3,,,2/5,,
1-5[8:1]/7,,,,7-2[8:1]/1,,,,
4-8[8:1]/7,,,,4/6qq1[8:3],,,,
6/2h[8:3],,,,,,,,
2,,,3,,,4/7,,
6-1[8:1]/2-5[8:1],,,,6/2,,,,
3-8[8:1]/7-4[8:1],,,,3/7,,,,
2x-4[8:1],,5x,,2,,5,,
1x-3[8:1],,6,,1,,6,,
7x-5[8:1],,3,,7,,3,,
8x-6[8:1],,2,,8,,2,,
3h[8:3],,,,,,7,,
1/6,,2,,3/8,,7,,
1bx-4[8:1]b*-6[8:1]b,,,,1b,,,,
8bx<5[8:1]b*>3[8:1]b,,,,8bxw4[8:1]b,,,,
8bx,,,,3bx/Cf,,,,
7bx/Cf,,,1bx/Cf,,,E1/B8/B7/B6/B5/B4/B3/B2/B1/E7/E5/E3/Cf,,
,,,,,,,,
,,,,1-4[8:1]/5-8[8:1],,6/2,,
1/5,,,,3x>8[8:1]/7x<4[8:1],,6/2,,
3/7,,,,2xpp1[8:3],,,,
6xpp5[8:3],,,,,,,,
3bx,,,,,,2,,
7x<5[8:1],,1,,7,,1,,
4x-8[8:1],,2,,4,,2,,
2x>4[8:1],,8,,2,,8,,
5x-1[8:1],,7,,5,,7,,
7,,6/1,,2,,3/8,,
7,,6/1,,2,,3,,
2x>5[8:1]/6x<1[8:1],,1x/5x,,2xp6[8:1]/6xp2[8:1],,,,
2bx/6bx,Cf,,,,,,,
4x,,5x,,3x,,6x,,
2x,,7x,,1x,,8bxh[8:17]/Cf,,
,,,,,,,,
,,,,,,,,
,,,,,,,,
,,,,,,,,
,,,,1/7,,,,
2/6,,,,3qq4[8:3]/5pp4[8:3],,,,
{16}
3/5,,,,,,,,
,,5,,6pp5[8:3]/4qq5[8:3],,5,,
6/4,,,,,,,,
,,3,,5,,4,,
6>4-8[4:1],,,,6/1,,2,,
3qq8>3[4:3],,7,,,,6,,
,,,,,,,,
,,5,,6pp5[8:3]/4qq5[8:3],,5,,
6/4,,,,,,,,
,,4,,3qq4[8:3]/5pp4[8:3],,4,,
3/5,,,,,,,,
,,,,1>4[4:1],,,,
4<7[4:1]/1,,,,7>2[4:1],,,,
2>5[4:1],,,,6,,,,
7hx[8:4],,,,,,,,
1,,2,,3,,4qq4[4:1]*pp4[4:1],,
4,,,,,,,,
,,7,,6,,5pp5[4:1]*qq5[4:1],,
5,,,,,,,,
,,2,,3,,4,,
7<4[8:1],,,,7/2,,1q5[8:1],,
1,,7qq1[4:2],,,,7,,
,,,,,,,,
,,2,,3,,4qq4[4:1]*pp4[4:1],,
4,,,,,,,,
,,7,,6,,5pp5[4:1]*qq5[4:1],,
5,,,,,,,,
,,,,8<5[4:1],,,,
5>2[4:1]/8,,,,2<7[4:1],,,,
7<4[4:1],,,,3,,,,
1hx[8:8],,,,,,,,
7hx[8:4],,,,,,,,
,,,,,,,,
7b-2b[4:15],,,,,,,,
,,,,,,,,
,,,,,,,,
,,Ch[16:1],,,,,,
,,,,,,,,
,,,,,,,,
,,,,,,,,
,,,,,,,,
,,,,,,,,
E
