&title=Round ZERO 〜BLADE BRAVE
&artist=相川七瀨
&first=-0.18
&des=FANdoraxxx vs ペースト絵
&des_5=FANdoraxxx vs ペースト絵
&lv_5=13+
&inote_5=(158){4},{1},,{16},1h[8:1],
,7,6,1h[16:1],,8h[8:1],,2,3,8h[16:1]/4h[16:1],
,,,8b>3[8:5]/1b<6[8:5],,,,,,,,,,,,,,,,,{4}2>5[16:3],
2,6-1[16:3],
6,{16}3-8[16:3],,,8-5[16:3],,,{8}6x-2[16:3],,,,,{4}7<4[16:3],
7,3-8[16:3],
3,{16}6-1[16:3],,,1-4[16:3],,,{8}3b-7b[16:3],,,,,{4}6h[8:3]/4h[8:3],
{16},,,,,,3,5,
3,5,{8}1,{4}2h[8:3]/8h[8:3],{16},,,,,,7,1,
7<4[16:3]*>2[16:3],1,,,{4}7-3[4:1],{8},,,,,3-7[8:1],
,2-6[8:1],,1w5[16:3],,1b,
,,{4}7<4[8:1]/4>1[8:1],7/4-8[8:1],2h[8:3],
{8},8,2,4-7-5-2[16:7],,4,,,,,{4}6/2-4[8:1],
2,3/5-7[8:1],
5,{8}4/8,8<5[8:3]/4>1[8:3],,,,,,,{4}6h[8:3],
{8},4qq1[8:7],{4}4,
{8},,,,,,8,7,
6-1[8:1],1,{4}6/2-5[8:1],2/7-4[8:1],7,
{8},2,1,8,7/3,2-5[8:1]/6-1[8:1],,2/6,
,,{4}2>5[8:1]/5<8[8:1],2/5-1[8:1],7h[8:3],
{8},1,7,5-2-4-7[16:7],,5,,,,,{4}3/7-5[8:1],
7,6/4-2[8:1],
4,{8}5/1,1>4[8:3]/5<8[8:3],,,,,,,{4}3h[2:1],
{8},4<7[4:1],{4}4,
,2h[2:1],,1<6[4:1],
6>3[4:1],3>8[4:1],8<5[4:1],4,
{8},2-6[8:1],,2/8-4[8:1],,8/1<2[8:3],,1/7,
,,{4}7pp4[2:1],{8}7/3,2,,,{4}2h[8:1],
2qq5[2:1],{8}6/2,7,,,8,
7/5,{4}4/1-6[8:1],1/4-8[8:1],4/5-1[8:1],
3>8[16:3]/5<8[16:3],3/5,{8},,4,3/5,
2,1,{4}1<6[8:1]*>4[8:1],1,{8}5,6/4,
7,8,{4}4>1[8:1],{8}4,8<5[8:1],,8qq4[4:3]*pp4[4:3],
,8,,,,,,,3/5,
2h[8:3]/6h[8:3],,,,,{4}4-1[8:1]/5-8[8:1],
{8},,2v5[8:1],5V31[8:1],2,6,,7>2[4:1],
,7/2>5[4:1],{4}5-1[16:3],{8},,,3/7,
{4}3/7,{8}7v4[8:1],4V68[8:1],7,3,,2<7[4:1],
,2/7<4[4:1],{4}4-8[16:3],{8},,,6/2,
{4}6/2,{16}2,4,3,4,{8}3,{16}7,5-1[16:3],6,5,,,,,,,6,
8,7,8,{8}7,{16}3,1,2-6[8:1],1,{8}2,
,,5>2[4:1],1,{4}2<7[4:1],{8}5,4,
{4}3,{8}8-5[8:1],4v1b[8:1],8,4,,2b/6b,
{4}2b/6b,{8}6v1[8:1],1V75[8:1],6,2,,3<6[4:1],
,3/6<1[4:1],{4}1-5[16:3],{8},,,7/3,
{4}7/3,{8}3v8[8:1],8V24[8:1],3,7,,6>3[4:1],
,6/3>8[4:1],{4}8-4[16:3],{8},,,2/6,
{4}2/6,{16}7,5,6,5,{8}6,{16}2,4-8[16:3],3,4,,,,,,,3,
1,2,1,{8}2,{16}6,8,7-3[8:1],8,{8}7,
,,4<7[4:1],8,{4}7>2[4:1],{8}4,5,
{4}6,{8}1-4[8:1],5v8b[8:1],1,5,,3bqq2[8:5]/7bqq6[8:5],
,3b/7b,,,,,,,6bv4-7[8:5]/2bv4-1[8:5],
6b/2b,,,,,,,4b-2>3-8[4:7]/8b-6<7-4[4:7],
4b/8b,,,,,,,,,,,,,,,,,{4}2h[4:1]/1-5[8:1],
1,7h[4:1]/8-4[8:1],
8,{8}6h[8:1],3,5h[8:1],2,1V35[8:1]/5V71[8:1],5/1,
{16},,,,2,8,3,7,1,6,2,5,3,6,2,7,
4,8,3,7,2,2,5,3,7,7,{24}3,4,5,6,7,8,1,2,3,
4,5,6,7,8,1,{8}2/5,6,{16}7,1,7,3,7,2,6,3,
{8}5,6/4,7/3,3,{16}2,8,2,6,2,7,3,6,
{8}4,3/5,2,6,{16}7,1,7,3,7,2,6,3,
{8}8>8[8:7]*<8[8:7],1/7,,,,,,,,,{4}2qq5[2:1],
{8}2/6,7,,,{4}7h[8:1],
7pp4[2:1],{8}3/7,2,,,1,
2/4,{4}5/8-3[8:1],8/5-1[8:1],5/4-8[8:1],
6<1[16:3]/4>1[16:3],6/4,{8},,5,6/4,
7,8,{4}8>3[8:1]*<5[8:1],8,{8}4,3/5,
2,1,{4}5<8[8:1],{8}5,1>4[8:1],,1pp5[4:3]*qq5[4:3],
,1,,,,,,,6/4,
7h[8:3]/3h[8:3],,,,,{4}2qq5[8:9]/6qq1[8:9],
{8},,,,,,,,,,8/4,
3-8[8:1]/7-4[8:1],6/2,3/7,,7/3qq5[2:1],
,3,{4}8-4[8:1],8,6-1[8:1]*-3[8:1],
6,{8}1/5,6-1[8:1]/2-5[8:1],3/7,2/6,,2/6pp4[2:1],
,6,{4}1-5[8:1],1,3-8[8:1]*-6[8:1],
3,{8}7/1,5-1[8:1],4,5V31[4:1]*>8[4:1],,5,
,,2/8,4-8[8:1],5,4V68[4:1]*<1[4:1],,4,
,,8/3,4,5,1/6,5,4,
7/2-4[8:1],8-6[8:1],2-6[8:1],8,2,8,,6b,
4b,2b,1/5,6v1[8:1]/2-5[8:1],3/7,2/6,,6/2qq4[2:1],
,2,{4}7-5[8:1],7,3-8[8:1]*-6[8:1],
3,{8}8/4,3v8[8:1]/7-4[8:1],6/2,7/3,,3/7pp5[2:1],
,7,{4}2-4[8:1],2,6-1[8:1]*-3[8:1],
6,{8}6/4,8-4[8:1],1,8V24[4:1]*>5[4:1],,8,
,,3/5,1-5[8:1],8,1V75[4:1]*<4[4:1],,1,
,,5/2,1,8,4/7,8,1,
6/3-7[8:1],2/8,{4}3/5-1[8:1],{8}5,3,,6bpp7[8:5]/2bpp3[8:5],
,6b/2b,,,,,,,3bpp2[8:5]/7bpp6[8:5],
3b/7b,,,,,,,5bpp1[2:3]/1bpp5[2:3],
5b/1b,,,,,,,,,,,,,,,6bpp7[8:5]/2bpp3[8:5],
6b/2b,,,,,,,3bv5-2[8:5]/7bv5-8[8:5],
3b/7b,,,,,,,5b-7<6-1[2:3]/1b-3>2-5[2:3],
5b/1b,,,,,,,,,,,,,,,6bV82[8:5]/2bV46[8:5],
6b/2b,,,,,,,7bqq4[8:5]/3bqq8[8:5],
7b/3b,,,,,,,5bqq8[4:5]/1bqq4[4:5],
5b/1b,,,,,,,,,,,,,,5/1,
4/8,7/3,{16}1,6,2,6,3,6,4,6,5,7,4,7,
3,7,2,7,5,2,6,2,7,2,8,2,1,3,8,4,
{8}6,3h[16:1]/7h[16:1],2h[16:1]/6h[16:1],{16}1,8,7,6,5,4,{8}3,6h[16:1]/2h[16:1],
7h[16:1]/3h[16:1],{16}8,1,2,3,4,5,{8}6,7h[16:1]/3h[16:1],6h[16:1]/2h[16:1],{16}5,4,
3,2,1,8,7,6/3,5,4,6h[8:1]/3h[8:1],,,,,3bpp8[16:13]/6bqq1[16:13],
E
