&title=大地に咲く旋律
&artist=幽閉サテライト
&first=0.04
&des=Tasogare Hi Shirabe
&lv_5=13+
&inote_5=(120){1},
{8},,,,
{8}4qq5[8:3],,6h[2:1],,,,,,5qq2[8:3],,7h[2:1],,,,,,2pp6[8:3],,8h[2:1],,,,,,1qq5[8:4]/6<4[8:4],,,,,,,,
{16}7/4,,4,,3,,5,,4/7<5[32:3],,,,,,,,
{16}2/5,,5,,6,,4,,5/2>4[32:3],,,,,,,,
{16}4/7,,6,6,5,,3,,2/5,,3,3,4,,6,,8q7[8:3]*>6[8:3]/4,,,,,,,,,,,,,,1,,
{16}5h[16:3],,,4h[16:3],,,3,,4h[16:3],,,5h[16:3],,,6,,3V14[4:3]*pp4[4:3],,,,,,,,,,,,,,,,
{2},
{16}7<5[32:3]/4,,,,3h[4:1],,,,4h[4:1],,,,1p5[8:1],,,,7<4[8:1],,,,3h[4:1],,,,8h[4:1],,,,1,7,1,7,
{16}2>4[32:3],,,,6h[4:1],,,,5h[4:1],,,,8q4[8:1],,,,2>5[8:1],,,,6h[4:1],,,,1h[4:1],,,,8-6[32:3]*-4[8:1],,,,
{16}8>3[8:1],,,,5h[4:1],,,,4h[4:1],,,,8p4[8:1],,,,8>3[8:1],,,,5h[4:1],,,,4h[4:1],,,,8,2,8,2,
{16}1<6[8:1],,,,3h[4:1],,,,5h[4:1],,,,1q5[8:1]*p5[8:1],,,,1qq8[4:2]*pp2[4:2],,,,,,,,,,,,,,,,
{8}1-5[8:1],,6h[4:1],,4>1[8:1],,4q8[8:1],5,8qq1[8:3],,2,3,4h[4:1],,1,,
{8}8-4[8:1],,3h[4:1],,5<8[8:1],,5-2[8:1],4,1-5[8:1],,1<4[4:1],2,4>8[4:1],,,,
{8}6-1[8:1],,6>3[8:1],,8p4[8:1],,8>3[8:1],1,5pp4[8:3],,4,3,2h[4:1],,1<6[8:1],,
{16}4>1[8:1],,,,7h[4:1],,,,2h[16:2],,,4/3h[16:2],,,5/4,,1bpp3[8:3]/6bqq4[8:3],,,,,,,,,,,,
{16}2,2,4,4,3-5[32:3],,,,6,,7,4,6-1[32:3],,,1,6,,4,,3/8p4[8:1],,,,5v2[8:1]*<8[8:1],,,,,,,,
{16}6,6,5,5,7<5[32:3],,,,4,,3,4,2-5[32:3],,,5,2,,7,,8<5[8:1]/4,,,,2/8>3[8:1],,,,7-4[8:1]/8<5[8:1],,,,,,,,
{16}3>8[32:3],,,,6,,7,1,6>3[32:3],,,3,6,,1,,2/8>3[8:1],,,,5<8[8:1]*q1[8:1],,,,,,,,
{16}3,3,4,4,2>4[32:3],,,,5,,6,6,5>2[32:3],,,8<5[32:3],,,,,3h[4:3],,,,4,,4,,5,,5,,6,,6,,
{16}7/5,,6,,4>6[16:3],5,3,4,2b,,,,
{96}4-1[32:3]*-1[32:3],5-8[32:3],,,,,,,,,,,,,,,,,,,,,,,
{8}4bqq5[16:5]/5b,,7h[4:1],,,6,4-1[8:1]/5,3,4qq5[16:5]/2,,8h[4:1],,,7,6/4q8[8:1],3,4qq1[8:3],5,7h[8:2],,,6<1[8:1],5,4,3<6[8:1],2,1,8,
{8}2b<8[32:3]/7b-4[32:3],,
{8}2>5[32:3]/7,,6pp4[16:5]/2,,3h[4:1],,,2,3/4-8[8:1],5,6pp4[16:5]/4,,1h[4:1],,,2,3/5,6,
{16}4h[16:3]/7,,,5h[16:3],,,2,,3/4h[16:2],,,5h[16:2]/4,,,6/5,,7>6[8:3]/4qq5[16:5],,,,,,,,,,,,
{96}1b>4[32:3],8b<5[32:3]*<5[32:3],,,,,,,,,,,,,,,,,,,,,,,
{8}8qq3[16:5],,5h[4:1],,,4,3/5<8[8:1],2,5qq2[16:5],4,6h[4:1],,,7,6/4q8[8:1],3,4qq1[16:5],5,7h[4:1],,,6<1[8:1],5,4,3<6[8:1],2,1,8,
{8}1b-6[32:3]/7b-3[32:3],,7>2[32:3]/1,,5pp1[8:3],,3h[4:1],,,4,5>2[8:1]/8,7,5pp1[8:3],6,3h[4:1],,,4>1[8:1],5,7,
{16}6h[16:3],,,4h[16:3],,,2,,3h[16:2]/4,,,5/4h[16:2],,,6/5,,8pp4[8:4]/4>5[8:4],,,,
{4},,,
{16}3h[16:3],,,4h[16:3],,,5,,6h[16:3],,,5h[16:3],,,4,,3>5[4:3],,,,,,5h[96:1],,,,,,1h[96:1],,,,3V14[4:3]*pp4[4:3],,,,,,,,,,,,,,,,
