&title=Palescreen
&artist=WyvernP
&first=0.1
&des=Paleyuki
&lv_5=14
&inote_1=(173)
{8}
&inote_5=(173)
{1}
,,
{4}
36,4,47,6,17,2,83,4,73,8,26,1,3/6h[8:3],
{8}
,2,2,D6,A5,E6,B5/1x,,3,,
1,2,8,3,7,4,6,5,6,,3,6,1>4[8:1],,1,,8<5[8:1],,8,,27,,,36,63,
,,,2b/7b,,,,1x-5[8:1],,7-3[8:1],,2-5[8:1],,8-3[8:1],,1x-6[8:1],,7,,
{16}
2,8,2,8,2,,7,,2x,,6,,1>4[8:1],,,,
{8}
1<6[8:1],,1-4[8:1],,1x-6[8:1],,1,,
{16}
4,5,3,6,4,5,3,6,2xv5[8:1],,1,,8,,7,,
6,3,5,4,6,3,5,4,7xv4[8:1],,8,,1,,2,,
3h[4:1],,,,7h[4:1],,,,2xh[4:1],,,,6h[4:1],,,,
{8}
1h[2:1],,,,5bxq1pp7<4[4:33],,,,,,,,,,,,,,,,,,,,,,,,,,,,,,,,,,,,
A2,,,,A3,,,,,,A7,,A6,,,,E4,,,,E3,,,,E2,,,,C,,,,1x,,,,27,,,,
{16}
8-4[8:1],,,,2-6[8:1]/8,,,,2/7,,,,,,,,
13,,,35,,,57,,71,,,,,,,,6h[2:1],
,,,,,1,2,3,,,,,,,,
2,,,,8,,,,1,7,1,,8<5[8:1],,8,,1p4[8:1]
,,1,,8-3[8:1],,8,,1,,,,7-3[8:1],,,,7h[8:3]
,,,,,,2,,2,,,,6,,6,,6qq8[2:1]
,,,,,,,,3,,,,2,,,,3b
,4,5,6,7,8,1,2,3x/7,6,5,4,3,2,1,8
,7/1,2,3,4x,5,6,7,8x,1/5,4,3,2,1,8,7,6,5x
,2,3,6,5x,1,2x,8,7x,2,3,8,7,3,4,7,6x
,4,5,4,5,1,8x,1x,8xh[4:1],,1,,1h[4:1],,8,,
,4,3,5,2,4,3,4,3x,5,2,5,2,6,1,8,6x
,7,8,1,6x,7,8,7,8x,1,6,7,8,5,2,7,8x
,6,8,5,8x,4,8x,3,8x,4,8,5,8,6,8,7,8x
,7,1,7,2,7,3x,7x,4x,7,5,7,4,7,3,7,2b
,,,,34,,2,,34,,5,,34,,2,,34
,,5,,87,,1,,87,,6,,87,,6,,7-5[8:1]/8
,,3,3,7>2[8:1],,3,3,7-4[8:1],,4,4,7-1[8:1],,3,3,7<5[8:1]
,,2,2,7>2[8:1],,4,4,7-5>4[8:1],,3,3,7,,2,2,7h[8:1]
,,,,2h[8:1]/7,,7,,6h[8:1]/3,,3,,4h[8:1]/5,,5,,
3h[8:1]/6,,6,,7h[8:1]/2,,2,,1h[8:1]/8,,8,,27,,2,,
{32}
6,5,4,3,2,1,8,7,6,5,4,3,2,1,8,7,6,5,4,3,2,1,8,7,6,5,4,3,2,1,8,7,6,5,4,3,2,1,8,7,6,5,4,3,2,1,8,7,6,5,4,3,2,1,8,7,6,5,4,3,2,1,8,7,6b/Cf,,
{8},,,,,,,
{16}
,1,1,2,2,3,3,4,4,5,5,6,6,7,7,8,8,1b,,,,,,,,
{64}
8/1,2,3,4h[64:61],,,,,,,,,,,,,,,,,,,,,,,,,,,,,8,7,6,5h[64:29],,,,,,,,,,,,,,,,,,,,,,,,,,,,,,36,27,81,,,,,,,,,,,,,
{16}
,,,,1>4[8:1],,,,1<6[8:1],,,,1-4[8:1],,,,1,,,,7,1,7,1,7qq5[8:1],,1,,7pp1[8:1],,,,7,,,,B8,B3,B6,B1,B5,E2,B7,B3,Cf/2x>2[86.5#4:1]b,,,,,,,,2x<2[86.5#4:1]b,,,,,,,,3x,,,,,,,,,,,,
8,8,3,3,5,5,2,2,8,8,3,3,4,4,1,1,7,7,3,3,5,5,2,2,7,7,5,5,8b/Cf,,,,,,,,
2-5>3[8:1],,1,,1,,,,7-4<6[16:1],,8,,8,,,,8p4[8:1]/1q5[8:1],,18,,18,,,,
{16}
1>4[8:1],,,,1/8-6[8:1],,,,8/2-5[8:1],,,,28,,,,4,6,4,6,4qq2[8:1],,6,,4pp6[8:1],,,,4,,,,B2,B5,B8,B3,B7,E4,B1,B5,1hx[2:1],,6,,6,,6,,6h[2:1],,2,,2,,2,,2h[2:1],,7,,7,,7,,7bv4v1[4:6]*-5v4-2[4:6],,,,,,,,,,,,,,,,
{1}
,
{16}
B5,,E6,,B6,,B7,,E8,,,,,,,,A7/D8/A3/D4,,,,,,,,A6/D6/A2/D2,,,,,,,,
E2,,E8,,E4,,E6,,C,,,,,,,,E2/B1,,E6,,E3/B2,,E7,,B3/E4,,E1,,B4/B5,,D8,,E3,,E4,,E7,,E8,,C,,,,,,,,A7/D8/A3/D4,,,,,,,,A6/D6/A2/D2,,,,,,,,
E4,,E6,,B3,,B6,,B2,,B7,,E1,,,,E8/E2,,B7/B2,,B6/B3,,E4/E6,,
{64}
A1,D2,A2,D3,A3,D4,A4,D5,A5,D6,A6,D7,A7,D8,A8,D1,A1,D2,A2,D3,A3,D4,A4,D5,A5,D6,A6,D7,A7,D8,A8,D1,
{16}Cf
,,,,,,,,3x,8,2,6,1,7,3,5,2
,7,3,6,1x,7,4,6,3x,5,2,6,2,8,1,6,3x
,8,3,7x,2,5,1x,7,4x,6,1,5,2,8,3,5,
3x,4,3,4,2,4,3x,5x,4x,6,5,7,5,6,5,6,2x
,8,3,5,8,7,4,5,2x,1,4,5,4,5,4,5,4
,7,8x,5,4x,8,2,4,3x,7,1,5,4,5,4,5,4hbx[4:7]/6x,
{32}
5,,3,2,1,8,7,6,5,,3,2,1,8,7,6,5,,3,2,1,8,7,6,5,,3,2,1,8,7,6,5,,3,2,1,8,7,6,5,,3,2,1,8,7,6,5,,3,2,1,8,7,6,5,4,3,2,1,8,
7bh[4:4],,
{16}E4,E3,E2,E1,E8,E7,E6,E5,E4,E3,E2,E1,E8,E7,E6,E5f,,,,
{4}
,,,1h[2:1],,,,C,2h[4:1],,,3h[2:1],,,,C,4h[4:1],,,5h[2:1],,,,C,6h[4:1],,,7h[2:1],,,,C,8h[4:1],,,
{8}
35,4,5,6,
24,3,4,5,
28,1,2,3,4,5,6,7,
58,7,6,5,
74,6,5,4,
63,5,4,3,
24,3,4,5,
35,4,5,6,
46,5,6,7,
16,,,,38,,,,1<6[1:2],,,,,,,,C,,,,,,
{16},,E5,E4,E3,
