&title=妖魔夜行
&artist=PHOENIX Project
&first=0.02
&des=Rotifera
&lv_5=14
&inote_5=(160){4},,,,{2}6>4[4:1],
3,
3<5[4:1],6,
6q3[8:3],4,
3p6[8:3],5,
{64}6x<1[8:3],5xh[2:1],{4},,,{16},,,{32},{64}3x>8[8:3],
4xh[2:1],{4},,,{16},,,{32},{64}E7,
B6,{32}B5,{4},{16},,,{64}E3,B3,{32}B4,{4},{16},,,{64}5h[4:1],
4h[64:15],{4},{16},,,{32},{2}5w1[8:1],
{1}3/7bV53[2:1],
{8}3,3,4,2,6,5,{4}7<3[2:1],
7b/3,,,2,
{8}3,3,4,1,6,5,8,4,
7,4,6/2,5,4,6,7/3,2,
1-3[8:1],4,1,5,6-8[8:1],5,6,4,
3,5,2/6,1,7,4,3/7,6,
{16}2,4,3,6,5,7,1,8,{32}1,2,3,4,8,7,6,5,{4}1b,
{8}2-5[8:1],2,6-1[8:1],6,4,3,2/8,7,
{16}6,4,5,3,{8}4,2,{16}5,4,6,3,{8}7,2,
3-8[8:1],3,7-4[8:1],7,1,2,3/5,6,
{16}7,1,8,2,{8}1,3,{16}4,3,5,2,{8}6,7,
8-5[8:1],8,4-1[8:1],4,6,7,8/2,3,
{16}4,6,3,5,{8}2,1,{16}8,1,7,2,{8}6,5,
4/3,2,8/1,7,6/5,7,8/1,2,
{16}5,4,6,3,7,2,8,1,{32}8,7,6,5,4,3,2,1,8,7,6,5,4,3,2,1,
{1}8bxqq5[2:1]/4bxqq1[2:1],
{8}6-4[8:1],3,{4}2-4[8:1],{16},,6,6,{8}5,{16}7,7,
{4}5-2[8:1],7,{16}1-5[8:1],,,8,{8}1,7,
{2}6-3[8:1],{12}2,4,3,6,5,7,
{4}4-2[8:1],7,{16}8-4[8:1],,,1,{8}8,2,
{2}3-6[8:1],{12}7,5,6,3,4,2,
{2}5-1[8:1],{12}2,3,4,8,7,6,
{8}4,3/5,2/6,1/7,{16}8,2,7,3,{8}6qq4[16:3],4,
6x,1,{16}6/1x-5[8:1],7/2,{8}8/3,{4}1x,{8}6q4[16:3],4,
6x,1,{16}6/1x-5[8:1],7/2,{8}8/3,{4}1x,{8}6<4[8:3],4,
{4}2h[2:1],{16},,,,,,,,5,4,{8}6,
3/7,4,2/6,5,3/8,4,{16}3/8-4-8[32:7],2/7,{8}6/1,
{4}8,{16}1v4[8:1]/7v4[8:1],6/2,{8}5/3,{4}1/7,{8}1-5[8:1],5-1[32:3],
{4}1,{16}8v5[8:1]/2v5[8:1],3/7,{8}4/6,{4}8/2,{8}3>5[8:3],5,
{4}7h[2:1],{16},,,,,,,,4,5,{8}3,
6/2,5,7/3,4,6/1,5,{16}3pp5[16:3],3,{8}5,
3x,8,{16}3/8x-4[8:1],2/7,{8}1/6,{4}8x,{8}3p5[16:3],5,
3x,8,{16}3/8x-4[8:1],2/7,{8}1/6,{4}8x,{8}3>5[8:3],5,
{4}7h[2:1],{16},,,,,,,,4,5,{8}3,
6/2,5,7/3,4,6/1,5,{16}6/1-5-1[32:7],7/2,{8}3/8,
{4}1,{16}2p5[8:1]/8q5[8:1],3/7,{8}4/6,{4}8/2,{8}8-4[8:1],4-8[32:3],
{4}8,{16}7q4[8:1]/1p4[8:1],6/2,{8}5/3,{4}1/7,7/1,
{8}6/4,6/4,5/7,5/7,6/8,8/6,7/1,1/7,
{16}2,8,2,8,2,8,2,8,{32}2-6[8:1],3,4,5,6,7,8,1,{4}2b,
{16}7,5,8,8,3,4,2,5,{8}1-3[8:1],7/3-5[8:1],1/5,7,
{16}8,8,4,6,3,5,2,2,{8}8V64[16:3],2/6,8/4,2,
{12}3b,3,3,4b,4,4,5b,5,5,6b,6,6,
7b,7,7,8b,8,8,1b-5[8:1],1,1,1,,,8h[6:1],
{24}5x,4x,{12}3x,7h[6:1],{24}2x,3x,{12}4x,6h[6:1],{24}3x,2x,{12}1x,5h[6:1],{24}8x,1x,{12}2x,
{24}4,5,{12}6,3,{24}7,6,{12}5,3,{16}4,2,4,2,5,3,5,3,
{8}6-2[8:1],6,4-8[8:1],4,5-1[8:1],5,2,2,
{16}8,2,8,2,8,2,8,2,{32}8-4[8:1],7,6,5,4,3,2,1,{4}8b,
{16}3,3,5,2,6,5,8,8,{24}3,2,1,8,7,6,3,2,1,8,7,6,
{16}4,5,3,6,2,7,1,8,{24}1x,8x,1x,8x,1x,8x,1x,8x,1x,8x,1x,8x,
{8}1x,{16}2,2,4,4,3,3,6,6,5,5,7,7,1,8,
5,7,4,6,3,5,2,4,1-5[8:1],3,1,3,{4}1,
{8}7/3,{16}6-8[8:1],5,7,4,{8}6,1,{16}2-4[8:1],1,3,8,{8}2,
5,{16}5<8[8:1],4,6,4,{8}5,1,7/2,{16}3x/6x,4x/5x,,,{8}7/8,
8/7,2/1,1/2,3/4,4/3,6/5,5/6,
{16}4/8x,3,2,1,8/4x,7,6,5,{32}8x/4-8[8:1],3,2,1,8,7,6,5,{4}4b/8x,
{8}7,4,6/2,{16}5,5,{8}4,6,7/3,2,
1-3[8:1],{16}4,4,{8}1,5,6-8[8:1],{16}5,5,{8}6,4,
2,5,3/7,{16}4,4,{8}5,3,2/6,7,
8-6[8:1],{16}5,5,{8}8,4,3-1[8:1],{16}4,4,{8}3,5,
6,2,7/3,{16}4,4,{8}7,3,2/6,5,
3-1[8:1],{16}4,4,{8}3,8,7-5[8:1],{16}1,1,{8}7,2,
3/4,2,1/8,7,6/5,7,8/1,2,
{16}5,4,6,3,7,2,8,1,{32}8-4[8:1],7,6,5,4,3,2,1,{4}8,
{8}2-5[8:1],3,6-1[8:1],7,{16}4,3,{8}2,2/8,7,
{16}7,5,6,4,5,3,{8}3,{16}5,5,4,6,3,7,{8}2,
3-8[8:1],2,7-4[8:1],6,{16}1,2,{8}3,3/5,6,
{16}7,1,8,2,1,3,{8}3,{16}4,4,3,5,2,6,{8}1,
8-5[8:1],7,4-1[8:1],3,{16}6,7,{8}8,8/2,3,
{16}4,6,3,5,2,4,1,1,8,1,7,2,6,3,{8}5,
4/2,2/4,3/1,1/3,8/2,2/8,7/1,7/1,
{16}6,6,4,4,2,2,6,6,8,8,2,2,{32}4,3,2,1,8/1,7/2v4[32:107],3/6v8[16:53],5bx/4bx,
{1},,,,{2}6>4[16:3],
3,
3<5[16:3],6,
6>3[16:3],2q6[16:3],
{1}7pp4[2:1],
{64}3h[2:1],4h[64:31],{4},,,{16},,,{32},{64}6h[2:1],
5h[2:1],{4},,,{16},,,{32},{64}6h[2:1],
4h[2:1],{4},,,{16},,,{32},{64}3h[2:1],
5h[2:1],{4},,,{16},,,{32},{64}B5,
B6,{32}B7,,,,,,,,,,,,,,,{2}4h[4:1],
{64}B3,B2,{32}B1,,,,,,,,,,,,,,,{2}5h[4:1],
{64}E7,B6,{32}B5,{4},{16},,,{64}E3,B3,{32}B4,,,,,,,,,,,,,,,{1}6h[1:1]/2h[1:1],
E
