&title=同归世界线
&artist=COP
&first=0.015
&des=_@
&lv_5=14
&inote_5=(130){4},,,,4/8-4[8:1],
{8}3,2,{4}4/1-5[8:1],{8}6,7,
{4}8-3[8:1]/6v3[8:1],6,2-4[8:1]/4-7[8:1],4-8[8:1],
{8}7v4[8:1],6,{4}5-1[8:1],{8}2v5[8:1],3,{4}4,
{8}2v7[8:1]*-5[8:1],6,,,6v3[8:1]/1-6[8:1],2,,,{4}1/4-1[8:1],
{8}7,6,{4}8/5-8[8:1],{8}2,3,
{4}4-1[8:1]/1v6[8:1],1,8-3[8:1]/6-8[8:1],8-5[8:1],
{8}4q8[8:1],2,{4}1-4[8:1],{8}5p1[8:1],7,{4}8,
{8}8/1h[8:1],3h[8:1],1h[8:1],8,4/6h[8:1],8h[8:1],4h[8:1],2h[8:1],
3<6[4:1],4/1,,2h[8:3],,,{4}1,
{8}3<8[8:3],4/1,,2h[8:3],,,{4}1qq6[8:3],
2,{8}4qq1[8:3],2,,,7qq4[8:3],5,
,,2q5[8:3]*qq7[8:3],8,,,,,6>3[4:1],
5/8,,2h[8:3],,,{4}1,
{8}6>1[8:3],5/8,,2h[8:3],,,{4}1p7[8:3],
2,{8}4p2[8:3],2,,,7p5[8:3],5,
,,2,8,5/1,5/2,{16}5,4,6,5,
{4}8-4[8:1],{8}2,1,{4}8-4[8:1]/6-4[8:1],8,
5/1-5[8:1],{8}7,8,{4}1/3V51[4:1],1,
8-4[8:1],{8}4qq7[8:3],2h[4:1],,,8qq3[8:3],2h[4:1],
,,4qq7[8:3],2>7[4:1],,,,,{4}1/5-1[8:1],
{8}3,4,{4}5-1[8:1]/7-1[8:1],5,
8/4-8[8:1],{8}6,5,{4}4/2V84[4:1],4,
5-2[8:1],{8}1p6[8:3],3h[4:1],,,5p2[8:3],3h[4:1],
,,1p6[16:5],3-6[16:3],,,,,4/5,
3,2>8[2:1],1h[8:3],,,,,5,
4,3<7[8:3],2h[8:3],,,,,6,
5,4<6[4:1],3pp6[8:5],,,,,{2}8h[2:1],
5-1[8:1],
{8}4-7[8:1],8/5h[8:3],,,{2}1-5[8:1],
{8}8-3[8:1],4/1h[8:3],,,{2}5v8[8:1]*-2[8:1],
{8}4/1,3,4/2,8/5,7,8/6,5v3[8:1]/3V17[8:1],4,
{4}5b/3b,1b,{8},,,,3b/7b,
5,8-6[8:1],6/2-4[8:1],1,2,,4,
3/7,5,8V62[4:1],6/2-4[8:1],1,2,,4,
3/7,5,8-6[8:1],2-4[8:1]/6-2[8:1],1,2V48[4:1],,4,
{4}1<6[8:1],7<4[8:1],7/5>2[8:1]*-1[8:1],5b,
{8}8/6,2,6/4,8-2[8:1],2/4-8[8:1],6,{4}4,
{8}6/4,2,8V26[4:1],2/4-8[8:1],6,4,,4,
8/6,2,6/4,8-2[8:1],4-8[8:1]/2-6[8:1],6,{4}4V62[16:3],
1v7[8:1],3v1[8:1],3/7v5[8:1]*-3[8:1],7b,
{8}8/2,6,4<7[8:1],7/1-5[8:1],3,1,,5,
8/2,6,4<2[4:1],7/1-5[8:1],3,1,,6,
1/3,5,2/8,4<7[8:1],7>2[8:1]/1-5[8:1],3,{4}1>4[8:1],
1/5b<8[8:1],5/7b-3[8:1],8b/7,5bpp5[4:1]/1pp1[4:1],
1b<3[16:5],{8},,,,8/1-5[32:3],7,
{4}6,{8}8/1-5[8:1],2V41[4:1],{4}3,{8}8-4[8:1],7V58[4:1],
{4}6,{8}1-5[8:1],2V48[4:1],{4}3,{8}8-4[8:1],7V51[4:1],
{4}6,2p8[4:1],8<2[4:1],5,
1h[4:1],{8}5,6h[8:1],{4}8h[4:1],{8}4,3h[8:1],
1h[8:1],5h[8:1],6,7h[8:1],1h[8:1],{16}5h[16:1],4h[16:1],{8}5,2h[8:1],
6h[8:1],5h[8:1],4,3h[8:1],7h[8:1],5h[8:1],4,2h[8:1],
7h[8:1],{16}8h[16:1],7h[16:1],{8}4,2h[8:1],6h[8:1],{16}5h[16:1],6h[16:1],{8}1,3h[8:1],
1h[8:1],4h[8:1],5,7h[8:1],8h[8:1],5h[8:1],4,2h[8:1],
1h[8:1],5h[8:1],6,7h[8:1],1h[8:1],{16}5h[16:1],4h[16:1],{8}5,2h[8:1],
5h[8:1],3h[8:1],1,7h[8:1],4h[8:1],6h[8:1],8,2h[8:1],
7h[8:1],{16}8h[16:1],7h[16:1],{8}4,2/1h[8:1],3h[8:1],{16}4h[16:1],3h[16:1],{8}8,6/5h[8:1],
{2}1>7[4:3],4,
8<2[4:3],5,
1s5[2:1],1,
{8}2,3,4,5,3,4,5,6,
1/7V51[4:1],1/5h[4:1],,,{2}6v1[8:1],
{8}8/2V84[4:1],8/4h[4:1],,,{2}3v8[8:1]*-6[8:1],
{8}5/7,6,1/5,2/4,3,4/8,7/1,6/4,
{4}8b/5w1[8:1],5b,,,5b/8w4[8:1],
8b,{2}2<7[8:1],
{8}8b/4b,{16}3,5,{8}1-6[8:1],{16}7,5,{8}1-4[8:1],{16}3,5,{8}1,6,
4/8,{16}3,5,{8}1V75[4:1],{16}7-5[8:1],3,{8}1V35[4:1],{16}3-5[8:1],2,{8}1,6,
8,{16}3,5,{8}1-5[8:1],{16}7,5,{4}1V75[16:3]*V35[16:3],1,
{8}3b,8/5,6b,8/5,3b-6[8:1],5/8,6b,8,
1b/5b,{16}6,4,{8}8>3[8:1],{16}2,4,{8}8<5[8:1],{16}6,4,{8}8,3,
5/1,{16}6,4,{8}8>3[16:3],{16}2>4[8:1],4,{8}8<5[16:3],{16}6>4[8:1],7,{8}8,3,
1,{16}6,4,{8}8-4[8:1],{16}2,4,{4}8>4[16:3]*<4[16:3],8,
{8}3b,1/4,6b,1/4,3b-6[8:1],4/1,6b,8,
{16}3b,5,4,6,{8}5>7[4:1],2/8-4[8:1],6/5,8,{16},,1,8,
2b,5,4,7,{8}5>2[8:1],2<7[8:1]/8-4[8:1],6/5,8,{16},,1,8,
4b,6,5,7,3b,1,5,6,2b,8,4,5,1b,7,3,4,
{32}8b,7,6,5,4,3,2,1,{4}8>3[8:1]/4b<7[8:1],4/8bqq8[4:1],8b>6[8:3]/4bqq4[4:1],
4b<2[8:3],{8},,,,1/8-4[32:3],2,
{4}3,{8}1/8-4[8:1],7,{4}6,{8}3/1-5[8:1],{16}2,8h[16:3],
{4}1,{8}4/1-5[8:1],{16}3,7h[16:3],{4}1,{8}5/1w5[8:1],{16}4,6,
{4}1b,7-2[8:1]/3bv6[8:1],7b/3,{32}5b/1b-5[32:4],4,3,2,1,8,7,6,
{1}5b/1b,
E
