&title=SAN値直葬 (feat. 初音ミク)
&artist=STEAKA
&first=0.15
&des=燭幽蘭香
&lv_5=14.2
&inote_5=(168){4},,,,
{4}4h[8:1]/5h[8:1],4h[8:1]/5h[8:1],
{16}4h[16:1],,,4h[16:1],,,4h[16:1],,,,3h[16:1],,3h[16:1],,,6h[16:1],,,,7h[16:1],,,8h[16:1],,
{16}1h[8:1],,,,1h[8:1]/8h[8:1],,,,1h[32:1],,,1h[32:1],,,1h[32:1],,,1xh[256:1],1xh[256:1],1xh[256:1],
{32}A6,E6/D6,A5,E5/D5,A4,D4/E4,A3,E3/D3,A2,E2/D2,A1,D1/E1,A8,,,,C1h[12:1],,,,,,,,
{8}2/8-4[8:1],2,2/8,2,2/3-7[8:1],2,2/3,2,2/1-5[8:1],2,2/1,2,
{24}2/7,1,8,7b/2b,,,,,,,,,
{8}7/1-5[8:1],7,7/1,7,7/6-2[8:1],7,6/7,7,7/8w4[8:1],7,8,,1b,2b,3b,,
{24}4/7,6/3,5/2,,,,2/5,3/6,4/7,,,,
{8}2-5[8:1],1,8,7-4[8:1],8,1,2/8,1,
{24}7/2,8,1,2b/7b,,,,,,,,,
{8}1-5[8:1],8-6[8:1],1-3[8:1],8-4[8:1],1v4[8:1],8v5[8:1],1-3[8:1],8-6[8:1],1w5[12:1],8,1,,4w8b[12:1],3/5,4,,
{16}3/5h[16:1],,3,,3/5h[16:1],,3,,3/5h[16:1],,3,,3/6h[16:1],,3/6h[16:1],,3,,3/6h[16:1],,3/6h[16:1],,3,,
{24}3/6,4,5,3b/6b,,,,,,,,,
{8}8-4[8:1],6-2[8:1],8,6,3v6[8:1],7v2[8:1],3,7,5v2[8:1],1v6[8:1],5,1,3bx,2bx,1bx,,
{8}3/4,1,3/4,8,4/5,2,4/5,7,6/5,1,6/5,8,
{64}E5/D5,A5,D6/E6,A6,D7/E7,A7,D8/E8,A8,E1/D1,A1,E2/D2,A2,E3/D3,A3,E4/D4,A4,E5/D5,D6/E6,A6,D7/E7,A7,D8/E8,A8,E1/D1,A1,E2/D2,A2,E3/D3,A3,E4/D4,A4,D5/E5,
{8}5xw1[2.07666##0.1],,,,,,,,3b/7b,,6b/4b,
{16},5bx,,,5xh[256:1],5xh[256:1],5xh[256:1],,,,
{16}3b/6b,4,5,5,2b,8,1,1,5b,5,4,6,3bx,,7bx,,
{16}2b/7b,8,1,1,2b,1,8,7,3b,3,8,8,1b,,7b,,
{16}6b/4b,,5,5,5b,,3b/7b,,6b,6,2,2,8b,,8b,,
{16}1b/5b,,7,7,4,4,8,,2bxv5b[8:1],,6bxv1b[8:1],,2bx,,6bx,,
{16}4h[256:1],4h[256:1],4h[256:1],4h[256:1],4h[256:1],4h[256:1],4h[256:1],4h[256:1],4h[256:1],,3b,,2b,,1b,,
{16}8h[256:1],8h[256:1],8h[256:1],8h[256:1],8h[256:1],8h[256:1],8h[256:1],8h[256:1],8h[256:1],,7b,,6b,,5b,,
{8}3-7[8:1],6-1[8:1],3^5[8:1],6w2[8:1],3,6,,,
{8}1-5[8:1],8-4[8:1],1-3[8:1],8-6[8:1],1^4[8:1],8v5[8:1],1,8,1bx,,
{16}5,,5,,6,4,4,,7,,7,,1,8,8,,2,2,6,,
{24}1bh[4:1]x,,,,,,5bx,2/6,3/7,4/8,,,
{16}4h[256:1],4h[256:1],4h[256:1],4h[256:1],4h[256:1],,8,,1,1,,5,5,,3/6,,2,2,,,8,7,6,,
{32}3,4,5,6,7,8,,,6,5,4,3,2,1,8,7,6hx[32:1],,,,,,,,
{16}4h[64:1]/5h[64:1],,4h[64:1]/5h[64:1],,3,,6,2,2,,7,1,1,6,6,,7,7,3,3,
{24}8bhx[4:1],,,,,,4bx,3b/7b,2b/6b,1b/5b,,,
{16}1,1,1,1,1,,2/7,,6,6h[16:1],,,3b,,,
{32}1,8,1,8,
{16},4,5,3,6,,,
{32}3bx,4,5,6,7,8,,,6bx,5,4,3,2,1,8hx[16:29],,
{4}B4/E4/B3,B4/E4/B3,B4/E4/B3,B4/E4/B3,B4/E4/B3,B4/E4/B3,B4/E4/B3,B4/E4/B3,
{8}E3,,B1/E2/B2,E1,,B7/B8/E8,,E7,,E6/B5/B6,,E5,,C1,B2/B3/E3/B6/B7/E7,,
{8}4,,4,4,,4,,5,,5,,5,,5,5,,3,,3,3,,3,,3,,3,,3,,2,1,,
{8}8/1w5[16:1],,1x,3hx[8:1]/7hx[8:1],,
{32}3x/7x,2x/6x,1x/5x,,
{8},1x-3[8:1]*-7[8:1],,1w5[8:1],,1,,7hx[8:2],
{32}1bx,2x,3x,4x,,,,,
{8}5bw1[16:1],,5xb,7hx[16:1]/3hx[16:1],,
{32}3x/7x,8x/4x,1x/5x,,
{8},1x-5[8:1]/5x-1[8:1],,1x/5x,,2h[24:7],,6h[24:1],
{32}2x/6x,7x/3x,8x/4x,,,,,,
{8}6/5,6/5,7/8,7/8,1/2,1/2,3/4,3/4,2/5,2/5,1/6,1/6,7/8,7/8,4/7,,
{24}5,6,5,6,5,6,5,6,5,6,5,6,5,6,5,6,5,6,5,6,5,6,5,6,5bhx[8:2],,,,,,
{16}E1,E3,E5,E7,
{48}E2,B2,B3,E4,,,,C1h[16:1],,,,,,,,,,,,,,,,,
{48}1bx/8bx,2bx/7bx,3bx/6bx,4bx/5bx,,,,,,,,,
{8},
{48}1x,1x,1x,1x,1x,1x,1x,1x,1x,1x,1x,1x,,,,,,,
{24}8x,8x,8x,8x,8x,8x,8x,,,6x,7x,,,2x,3x,,,,
{24}2bxh[128:1]/6bxh[128:1],3x/7x,4xh[128:1]/8xh[128:1],5x/1x,6x,7xbh[128:1],8x,1x,2x,3xb,4x,5xh[128:1],
{24}4bxh[128:1]/8bxh[128:1],7x/3x,2xh[128:1]/6xh[128:1],1x/5x,4x,3xbh[128:1],2x,1x,8x,7xb,6x,5xh[128:1],,,,1,2,3,4,5,1,2,3,4,5,,,,8,7,6,5,4,8,7,6,5,4,,,,,
{16}1h[64:1]/8h[64:1],,1[64:1]/8[64:1],,C1hf[16:1],,,,
{32}4,5,4,5,,,4,,5,,,,,,4,,,,,5,,,,,
{48}6bx,5bx,4bx,3bx,2bx,1bx,,,,,,,
{32}8x,7x,8x,7x,,,,,
{16}8h[128:1],,,3h[16:1]/4h[16:1],,,1b,,
{4},,,
{8},1bx,,1,1,1,
{32}1,2x,3x,4x,8,7x,6x,5x,,,,,C1f,,,,
{4}1/2-5[8:1],1b/2b,8/7-4[8:1],7b/8b,1-5[8:1]/8,1b/8b,1/8-4[8:1],1b/8b,6/5-1[8:1],5b/6b,3/4-8[8:1],4b/3b,
{8}1x-5[8:1],7x-3[8:1],1x,7x,8x,,,,
{4}1b-4[8:1]/8b,1/8-5[8:1],2-6[8:1]/8,2/7-3[8:1],2/7,
{8}8,1,8,,1p4[8:1]/8q5[8:1],,1b/8b,,,8b/1b,8b/1b,,,4h[64:1]/5h[64:1],4h[64:1]/5h[64:1],,1/8,,
{32}1b/8b,2x/7x,3x/6x,4x/5x,,,,,,,,,,,,,
{4}4-1[8:1]/8x,4x/8-5[8:1],8x/3-1[8:1],3x/7-5[8:1],7x/2-4[8:1],2x/6-8[8:1],6x/1-4[8:1],1x/5-8[8:1],5x/1,2/6,3/7,4/8,
{8}5x^2[8:1],1x^6[8:1],5x,1x,C1,,,,
{8}3-6[8:1]/7-2[8:1],,3/7,,3^1[8:1]/8^6[8:1],,3/8,,1hx[8:1]/8xh[8:1],,3/6,2/7,1b/8b,,
{8}2-6[12:1]/7-3[12:1],,2b/7b,,,1/8,3/6,,,2/7,1b-6b[8:1]/8b-6b[8:1],,1b-3b[8:1]/8b-3b[8:1],,1b-6b[8:1]/8b-6b[8:1],,1b/8b,,
{8}1-5[8:14],,2,3,4,,1,,2,8,3,7,1-5b[8:1],,1b,,
{8}8-4[16:11],,6,7,8-4b[8:1],,8b,,1^3[8:1],8q4[8:1],1p5[8:1],8,1,,,,
{8}8v3[8:1]/1,,8,7,6,,5,,2/6,8/4,7/3,4,5-1[12:1],,5w1[12:1],,
{8}5,,3/7,3/7,3/7,,4/5,4/5,4bx-8b[8:1]/5bx-7b[8:1],,4bx-2b[8:1]/5bx-1b[8:1],,4bx-8b[8:1]/5bx-7b[8:1],,4bx/5bx,,
{8}6bx-2[8:14]/2bx,,1,8,7,,6,,3,1,5,7,6-2b[8:1],,6b,,
{8}8,,1/7,7/1,7/1,,3/5,,4bx-2[8:1],4bx-6[8:1],4bx-8b[12:1],4bxw8[8:1],4bx,,,,
{8}2/6,,3v1[8:1]/7v5[8:1],1/5,7/3,,2x/6x,,1x-3[8:1]*-4[8:1],1x-7[8:1]*-6[8:1],1x-5[8:1],1x,1xw5[8:1],,1bx,,
{8}3/7,,1/6,3/8,1/6,,4/5,2/7,1b-5b[8:1]/8b-6b[8:1],,1b-3b[8:1]/8b-4b[8:1],,1bw5b[12:1]/8b,,1bx,,
{24}2bx/8x,3x,4x,5x,,,7bx/1x,6x,5x,4x,,,1b/7,2x,3x,4x,,,8b/2,7x,6x,5x,,,3b/7,4x,5x,,,,7b/3,6x,5x,,,,
{32}1bx,2x,3x,,,,7xb,6x,5x-1[12:1],,,,2bx,3x,4x,,
{24}5bx,,,,,,8/3b,4x,5x,,,,1/6b,5x,4x,,,,2b/7,3x,4x,5x,,,2/7b,6x,5x,4x,,,3b/5,2x,1x,8x,,,
{32}7bx,6x,5x,,,,2bx,3x,4x-8[12:1],,,,7bx,6x,5x,,4bx,,,,,,,,
{24}6b,7x,8x,1x,,,3b,2x,1x,8x,,,7b,6x,5x,,,,2b,3x,4x,,,,1bxh[48:1],,,,,,
{32}2bx/8bx,3x/7x,6x/4x,,,,7x/3x,6x/4x,5hx[128:1],,,,6x/4x,5hx[128:1],,,
{32}2b/8b,3x/7x,6x/4x,,,,7x/3x,6x/4x,5hx[128:1],,,,6x/4x,5hx[128:1],,,
{32}1bx/7bx,2x/6x,3x/5x,,,,2x/6x,3x/5x,4hx[128:1],,,,5x/3x,4hx[128:1],,,
{32}1b/7b,2x/6x,3x/5x,,,,2x/6x,3x/5x,4hx[128:1],,,,5x/3x,4hx[128:1],,,
{32}2b/8b,3x/7x,6x/4x,,5x-1b[12:1],,7x/3x,6x/4x,5hx[128:1],,,,5x,,,,
E
