&title=primal
&artist=solfa feat. Ceui
&first=0.48
&des=Kondou
&lv_5=12+
&inote_5=(185){8}
2h[8:2],,,3h[8:2],,,4h[8:2],,
,5h[8:2],,,6h[8:2],,,,
8/7h[8:2],,,6h[8:2],,,5h[8:2],,
,4h[8:2],,,3h[8:2],,,
(240){8},
(185){8}
2,2,8,1,1,6,6<2[8:6],,
3h[8:2],,,4h[8:2],,,5,,
7,7,1,8,8,3,3>7[8:6],,
6h[8:2],,,,5,,4-8[8:1],,
3b,3p5[8:2],,3/7h[8:2],,,6,
6q4[8:2],,6/2h[8:2],,,3-7[8:1],,3/7,,
6,6q2[8:2],,6/4h[8:2],,,3,
3p7[8:2],,3/5h[8:2],,,6-2[8:1],,6/2b,,
4,4>8[8:2],,4/7h[8:2],,,5,5<1[8:2],
,5/2h[8:2],,,4-8[8:1],,4/8,,
5,5<3[8:3],,5/1h[8:2],,,8,8,
71,6,52,3,48,{16}3,7,3,7,3,7,{8}
2b-6[8:1],5pp3[8:3],2,5,,1,1pp4[8:3],,
5,6,7,8p4[8:1],,2,1pp5[8:3],,
5,6,7,8-5[8:1],,3,2^5[8:1],,
7-3[8:1],8-4[8:1],7,8,,2,13,8,
7b-3[8:1],4qq6[8:3],7,4,,8,8qq5[8:3],,
4,3,2,1q5[8:1],,7,8qq4[8:3],,
4,3,2,1-4[8:1],,6,7,7,
8/1,2,2,78,6,6,1/3,,
4b,,,,45,,,4,
,4,4,,65,,,,
4,,,,45,,,4,
,4,4,,65,,,,
3,,,,45,,,3,
,3,3,,56,,,,
2,,,,45,,,2,
,2,2,,56,7,81,2,
4b-7[8:1]/3b,3,3,,4-1[8:1]/8,8,8,,
7<1[8:3]/2,2,3,3h[8:2],,,7/8,,
5-2[8:1]/6,6,6,,5-8[8:1]/1,1,1,,
2>8[8:3]/7,7,6,6h[8:2],,,2/1,,
4bv7[8:1]/3b,3,2,,4p8[8:1]/6,6,7,,
7<1[8:3]/2,2,3,4h[8:2],,,7/8,,
5v2[8:1]/6,6,7,,5q1[8:1]/3,3,2,,
2>8[8:3]/7,7,6,5h[8:2],,,2/1,{16}3,4,{8}
2b,2b-6[8:8],2,,,7,7,,
7,7,7,7h[8:3],,8,8,,
6b,6b-3[8:8],6,,,2,2,,
2,2,2,2h[8:3],,1,1,,
4b,4b-8[8:8],4,,,7,7,,
7,7,7,7h[8:3],,6,6,,
8b,8b-5[8:8],8,,,3,3,,
3,3,3,3h[8:3],,2,2,1b,
,,,,,,,,
,,,,,,,,
,,,,,,,,
,,,,,,,,
,,,{24},6,5,{8}4bw8[8:4],,,,
,,,2,3/4,5,6,8b/1b,
2,3,{16}4,5,4,5,{8}3b^8[8:1],8pp5[8:3],7,6h[8:2],
,,8,7,6/4>8[8:1],5p3[8:3],4,5b,
,1,1-6[8:1],,1-4[8:1]/8,,1-6[8:1]/2,,
1-4[8:1]/8,,1qq6[8:3]/2,,1/6,5,4,4-8[8:1],
,4,1>5[8:2],,1b/5b<1[8:2],,1V35[8:2],,
5V73[8:2],,7,8,1-6[8:1],,4,4-8[8:1],
,7-4[8:1],,1,1^4[16:3],,4^1[16:3],,
8^5[16:3],,5^8[16:3],,2,2,3,3,
{16}8,4,8,4,7,3,7,3,{8}6b^1[8:1],1qq4[8:3],2,3h[8:2],
,,1,2,3/5<1[8:1],4q6[8:3],5,4b,
,8,8-3[8:1],,8-5[8:1]/1,,8-3[8:1]/7,,
8-5[8:1]/1,,8pp3[8:3]/7,,8/3,4,5,5-1[8:1],
,5,8V64[8:2],,8b/4b-8[16:3],,1,2,
3-1[8:1],,7,7pp4[8:3],,,2,3,
3-7[8:1],,6,6qq1[8:3],,,2,2,
3,3,4/2,5,6b/2b,{16}1,8,1,8,{8}1,
2,3,4/5-1[8:1],,
5bqq5[8:12]*pp5[8:12],,,,,,,,
,,,,,,,,
6<3[8:3],,3,3<8[8:3],,8,8,,
3-1[8:1],4pp8[8:3],3,4,,2,3,4,
7b-3[8:1],4qq6[8:3],7,4,,8,8qq5[8:3],,
4,3,2,1q5[8:1],,7,8qq4[8:3],,
4,3,2,1-4[8:1],,6,7,8,
1,1,3,3,5,5,7,7,
8/6,1,2/5,3,4/6,7,8/1,2,
3b/4b,{16}6,5,6,,3,4,3,,6,5,7,,2,,{8}
8b>8[8:34]/1b,,,,,,,
,,,,,,,,
{16},,1,1,1,,,,1,,
,,1,,,,,1,
,,,,,,,,1b,
