&title=不死蝶
&artist=Blacky
&first=0
&lv_5=13
&des_5=kandalous
&inote_5=
(87.5){4},{8}C,7,2,8-4[8:1],1-6[8:1],8,
{4}1,{8}C,2,7,1-5[8:1],8-3[8:1],1,
{4}8,{8}1-3[8:1],8,1-7[8:1],5,{4}1-4[8:1],
{8}1-6[8:1],B5,{4}1-5qq3[8:5]*-5pp7[8:5],{2}1b,
{8},,6,5-1[8:1],4,5/3-7[8:1],2,3/1,
8,C,1-3[8:1],8-4[8:1],1/7-5[8:1],8-3[8:1],7-4[8:1],8,
{4}7,C,{48}4xh[16:1]/E4,B3,B2,E2,,,,,,,,,5xh[16:1]/E6,B6,B7,E8,,,,,,,,,{8}7h[16:1],
{24}1,8,1,{8}8,2,7,3,6,4,
{4}C/B7/B6/B5,{8}2-6[8:1],7-4[8:1],2,7,B3/E3/C/B2,B2/E2/B1/C,
{4}B8/C/E1/B1,{8}7-3[8:1],2-5[8:1],7,2,B6/E7/C/B7,B7/E8/B8/C,
{4}B1/C/E1/B8,{8}6,6,{48}2x,1x,{24}8x,{48},,,,,,,,2x,3x,{24}4x,{48},,,,,,,,2x,
E2,B1,B8,,,,,,,,,2x-6[16:1],E3,B3,B4,,,,,,,,,B2,C,{24}B6,,{8}1x,8x,7,
3,4,1>4[8:1],8<5[8:1],1,8,2-4[8:1],7-5[8:1],
2,7,1,1,8,2-4qq2[4:1]/6x-4pp6[4:1],7x/1x,6x/2x,
{4}B4/C,B8/E1/E8,{8}4-1[8:1]/5-8[8:1],3/6,{4}4/5,
{8}C,{24}3,5,4,{8}5,2-6[16:1],1-5[16:1],2bx/8-4[16:1],1bx/7-3[16:1],8bx,
{1}7bx/Ch[1:1],
{8},,1/5,C/B2/B3/B4/7x-1[16:1],5b/6h[16:1],7,{16}2-6[8:1],4,{8}3,
2,B8,5/4-7<6-2[4:1],3,4/3-5>4-8[4:1],2,3,1,
{4}7,{8}8/1-5[16:1],7/2,1b/8-4[16:1],7,{4}8b/7-3[16:1],
{8}7b/6-2[16:1],5,{4}6-4-8-6[2:1]/3-5-1-3[2:1],{2}6bx/3bx,
{8},,8/1-5[16:1],B2/B3/B7/B6/E7/E3,1/8-4[16:1],B2/B3,8/1-5[16:1],B7/B6,
1/8,2-7[16:1],3,2/3,4/5x-1-5[4:1],6/5,7/5b,8,
{4}8b,1b/5b,{8}7v6[8:1]/3v2[8:1],6<7[16:1]/2>3[16:1],{4}3x/7x,
{8}8/4-8[16:1],{24}5x,3,5,{8}4/C/B4/B8,7/E7/B6/B5,1/E2/B2/B3,4xh[16:1]/6h[16:1],7h[16:1]/3h[16:1],2h[16:1]/8h[16:1],
{4}1h[4:1],{8}7-4-1[8:1],2,{4}7/3-8-5[8:1],3/B2/B3,
{8}8-4[16:1],2h[8:3],{4}8/Cf,{8}1,{48}B8,B7,B6,B5,{24}B4,{8}B2,C,
{4}B7/B8/B1/C,{8}2-8[16:1],3,{4}2-4-6[4:1],6-8-2[4:1],
2-4-6[4:1],6-8-2[4:1],B4/B5/C,{8}5x,6,
7,7,1<7[16:1],5,1>3[16:1],{16}6x,6,{8}1-5[16:1],4,
1,{16}7,8,{8}8<6[16:1],4,8-5[16:1],3,8-4[16:1],2,
{4}8b,{8}4,5,{4}5h[8:1]/4bh[8:1],6h[8:1]/3bh[8:1],
2h[8:1]/7bh[8:1],1h[8:1]/8bh[8:1],{2}Ch[2:1],
{8},,4,5/3,{4}2/6,4h[8:1]/B7/B8/B6/C,
{8}6h[16:1]/2h[16:1],{16}7/1,8,{8}8V24[8:1],6,8V64[8:1],7,8-4[16:1],1,
8,,,4,{4}5xh[8:1],C/B7/B8/B1/B2,
{8}4,5,2b,1,8,{24}1,8,1,{8}8,4,
{4}5,{8}1h[8:1],8h[8:1],{4}1h[8:1],{8}1,7,
2,{24}6,3,3,{8}6,5,3b,5,2b,5,
1b,,,5,{4}5b/1h[16:1],5b/4b,
{8}6/3,4,7/2,5,{16}1/8,1/8,1/8,1/8,7/2,7/2,7/2,7/2,
{2}6h[4:1]/3h[4:1],{8}7b,{24}4b,5b,4b,{8}5b,3h[4:1],
{4}6h[8:1],{8}2/C,7,3b,{24}8b,1b,8b,{8}1b,7h[4:1],
{4}2h[8:1],{8}3,5,1b,{24}7b,8b,7b,{8}8b,6h[4:1],
{4}1h[8:1],{8}2/6,5/1,{48}5b/1b,6x/2x,7x/3x,8x/4x,,,,,,,,,8b/4b,7x/3x,6x/2x,5x/1x,,,,,,,,,8b/1b,
2x/7x,6x/3x,5x/4x,,,,,,,,,{8}3/C,6,2b,{24}5b,4b,5b,{8}4b,6h[4:1],
{4}3h[8:1],{8}2,8,4b,{24}6b,5b,6b,{8}5b,7h[4:1],
{4}4h[8:1],{8}4b,5,{32}3b,6,3,6,3,6,3,6,2b,7,2,7,2,7,2,7,
1bx,8x,1x,8x,2bx,7x,2x,7x,1bx,8x,1x,8x,2bx,7x,2x,7x,{64}1bx,2x,3x,4x,5x,6x,7x,8x,1x,2x,3x,4x,5x,6x,7x,8x,1x,2x,3x,4x,5x,6x,7x,8x,1x,2x,3x,4x,5x,6x,7x,8x,
{1}1x/B1/C/B5,
{8}3,B3,{4}B4,{8}6,B7,{4}B8,
{8}1,B2,C,B6,
E
