&title=愛♡スクリ~ム!
&artist=AiScReam
&first=0
&des=Lovelive Dream Stage
&des_5=Lovelive Dream Stage
&lv_5=13+
&inote_5=(132){4},,{2}3pp4-1[2:1],
E8/A8/D8,8<1[2:1],
C,{4}3h[4:1],4,
{16}5/2h[16:3],,,1,,,{8}3/8h[4:1],,,{4}5-2[8:1],
{16}5/7,,,6xh[16:5],,,,,{2}7pp8-5[2:1],
E4/A4/D4,4>5[2:1],
C,{4}7h[4:1],8,
{16}1/6h[16:3],,,5,,,{8}7/4h[4:1],,,1,3>8[8:1],
3/8,{24}8/3,7,6,{4}5bq7[8:3],3h[16:3],2,
8h[4:1],{16}6,,,4,{8}5,3,2,1/8,
{12}7,{24}7,1,,1,{12}8,{24}8,2,,,{8}6/5,4/3,,7/5,
1/B6,7/B4,{4}2/C,{8}3/4,5/6,,2/4,
8/B3,2/B5,{4}7/Cf,{16}6h[16:3],,,5,{4}7,
{16}3h[16:3],,,4,2,,,5,{8}4,3/6,7,7/1,
{12}2,{24}2,8,,8,{12}1,{24}1,7,,,{8}3/4,5/6,,2/4,
8/B3,2/B5,{4}7/C,{8}6/5,4/3,,7/5,
1/B6,7/B4,{4}2/Cf,7h[16:3],{16}2,1,{8}2,
3/8,5/4,{4}6/1,2h[16:3],{16}7,8,{8}7,
6/1,4/5,{4}3/8,1/7-4[8:1],7/8-3[8:1],
8/3,{8}2,1-5[8:1],,1/6,{4}6-8[8:1],
6/2-4[8:1],2b/1b,{12}6q2[8:1],{24}6,4,,4,{8}6,4,
{12}3,{24}3,8,,8,{4}7/1h[8:1],{12}4q8[8:1],{24}4,2,,2,{8}4,1,
{12}2,{24}2,8,,8,{4}2/7,8/2q6[8:1],2/8p4[12:1],
8/3>8[8:1],{8}3/6q2[4:1],6,{4}2q8[4:1],8q4[4:1],
4q2[4:1],2bq2>2b[2:3],{2}Cf,
{16},,,,,,,,,,,,,,,,,,3x,
4x,{4}5xpp1<4b[2:3],{2}B2f/E3f,
{1},{4},{16}1-5[8:1],
8,2,7,{2}E2f/B1f/E1f/1V36z2<4b[8:9],
{8},,,,,,,,,4/8>3[32:3],
{24},,,5bx/8bx,6,7,{32}4x,5x,6x,7x,8x,1x,2x,3x,4x,5x,6x,7x,8x,1x,2x,3x,
4x,5x,6x,7x,8x,1x,2x,3x,4x,5x,6x,7x,8x,1x,2x,3x,{4}4x/Cf,{8}5,{24}3,4,3,
{8}4,{24}6,5,6,{4}5v2[8:1],5/8b<5[8:1],3b/8b>3[8:1],
8b/4-8[8:1],{8}6/4,5-7[8:1],1-3[8:1],5,1-5[8:1],8,
1-3[8:1]/7-3[8:1],6,{4}7/1>5[8:1],6/1b<6[8:1],4/1b>4[8:1],
1b/5-1[8:1],{8}3/5,4-2[8:1],8x-6[8:1],4,{4}8x-4[8:1],
8b<5[8:1]/1b>4[8:1],8b/1b-5[8:1],1/7-4[8:1],7/2-6[8:1],
2/8-4[8:1],{16}8/1-6[8:1],2x,{8}3x,{16}1/2v5[8:1],3x,{8}4x,{4}2/8<4[16:3],
{16}3/8,2,1,8,7,6,5,4,{8}3/7,{16}6,4,7,3,{8}8,
{16}1x-5[8:1]/2x-6[8:1],3x/8x,{8}4x/7x,{4}2b/1b,{8}6/2,{16}3,5,2,6,{8}1,
{16}8x-4[8:1]/7x-3[8:1],1x/6x,{8}5x/2x,{4}8b/7b,6x/2<7[4:1],6x/7?>2[4:1],
4x/2?<6[4:1],5x/6?<2[4:1],3x/2?<7[4:1],5x/7?>3[4:1],
4x,{8}6x,7b/5b,,,8/1,5/7,
{4}4/2<7[8:1],{8}2,4-7[8:1],,4/1,,8,
{32}7/1-5[8:1],2x,3x,4x,5x,6x,7x,8x,{4}1bx,3x/7>2[4:1],3x/2?<7[4:1],
5x/7?>3[4:1],4x/3?>7[4:1],6x/7?>2[4:1],4x/2?<6[4:1],
5x,{8}3x,7b/1b,,,1/8,4/2,
{4}5/7>2[8:1],{8}7,5-2[8:1],,5/8,,1,
{32}2/8-4[8:1],7x,6x,5x,4x,3x,2x,1x,{4}8bx,{2}8w4[1:1],
{16},,,,,,,,,,,,,,,,2b/6b,
,,,,5,{8}4,{4}7/3,3-8[16:3],
{2}2bxh[4:1]/A3f,{8}7/1,6,{4}4/5qq5[3:1]*pp5[3:1],
{2}5x,{8}3-7[8:1],7-3[8:1],{4}1-6>5[8:1],
1,{16}2,2,8,1,{4}7/2-6[8:1],2/1-4[8:1],
1/7v4[8:1],{16}7b/4,3,2,1,{4}8<5[8:1],8/4v7[16:3],
{2}3bxh[4:1]/A4f,{8}2/8,3,{4}5/4pp4[3:1]*qq4[3:1],
{2}4x,{8}7/1,{24}6,5,6,{8}5,7,
{16}7,,,4/3,,2,6,5,{4}8/7-3[8:1],7/8-5[8:1],
{8}8/2-5[8:1],{16},,,,6,7,{4}8>3[8:1],5q2[4:1],
{2}4bxh[4:1]/A5f,{8}1/8,{24}4,5,4,{4}3qq5[8:3]/6pp4[8:3],
{2}6x/3x,{8}2/8,3/4,6/5,7/1,
{12}2,{24}4,3,,5,{12}4,{24}6,5,,7,{4}5-1[8:1],5/3-8[8:1],
{16}3/8,7,6,5,{8}2/4-8[8:1],3,{4}4/6,1w5[16:3]*w5[16:3]*w5[16:3],
{2}A1f,{8}1/7,6/5,{4}3q6[8:3]/8p5[8:3],
{2}3x/8x,{8}4/7,3/8,2/7,1/8,
{12}1b,{24}6,5,,7,{12}4,{24}6,3,,5,{8}3,1/2,8/7,5/6,
{32}3qq1>5[3:1],4,5,6,7,8,1,2,{4}3,Cf,{8}8,{24}3,4,2,
{8}4,{24}7,5,6,{4}5v2[8:1],5/8b<5[8:1],3b/8b>3[8:1],
8b/4-8[8:1],{8}4/6-3[8:1],5,6/2-6[8:1],1,2/1-5[8:1],8,
3-7[8:1],2,{4}3/1>5[8:1],6/1b<6[8:1],4/1b>4[8:1],
1b/5-1[8:1],{16}5/4,3x,{8}2x,4>2[8:1]/5-1[8:1],6,,,4x>2b[8:1]/5x-1b[8:1],
6,,,{4}8/7-4[8:1],7/2v5[8:1],
2/8<6[8:1],{16}8/4-7[8:1],3x,{8}2x,{16}4/8v3[8:1],1x,{8}2x,{4}8/1<5[16:3],
{16}5/1,4,3,2,1,8,7,6,{8}5/8,{16}2,4,3,8,{8}2,
{16}8xv5[8:1]/2xv5[8:1],7x/3x,{8}6x/4x,{4}2b/8b,{8}1/6,{16}7,5,6,1,{8}7,
{16}1xv4[8:1]/7xv4[8:1],6x/2x,{8}3x/5x,{4}1b/7b,{16}3x/5xh,2x,1x,8x,7x/4xh,8x,1x,2x,
3x/6xh,2x,1x,8x,7x/4xh,8x,1x,2x,3x/6xh,2x,1x,8x,7x/4xh,8x,1x,2x,
3x/6bx,7x,8x,1x,{8}2x/5x,4b/7b,{4}Cf,{8}8/1,5/7,
{4}4/2-6[8:1],{8}2/7,7>2[8:1],,7/3,,5,
{32}1/5-1[8:1],4/8,3/7,2/6,1,8,7,6,{4}5bx/Cf,{16}6x/4xh,7x,8x,1x,2x/5xh,1x,8x,7x,
6x/3xh,7x,8x,1x,2x/5xh,1x,8x,7x,6x/3xh,7x,8x,1x,2x/5xh,1x,8x,7x,
6x/3bx,2x,1x,8x,{8}7x/4x,5b/2b,{4}Cf,{8}1/8,4/2,
{4}5/7-3[8:1],{8}7/2,2<7[8:1],,2/6,,4,
{32}4/8-4[8:1],5/1,6/2,7/3,4,5,6,7,{4}8bx/Cf,{8}2b/7b,{16}6,5,{4}6h[4:1],
{16}3-7[8:1],4,2,5,{8}3,{16}6,6,1,7,2,5x,4,5x,3,5x,
{8}2-6[8:1],4,2,{16}7,7,2,8,3,4,{4}3h[4:1],
{16}6-2[8:1],5,7,4,{8}6,{16}3,3,8,2,7,4x,5,4x,6,4x,
{8}7-3[8:1],2,7,{16}1,8,{8}2b/7b,{16}6,5,{4}6h[4:1],
{16}3-7[8:1],4,2,5,{8}3,{16}6,6,1,7,2,5x,4,5x,3,5x,
{8}2/6,3/4,5/7,{16}8,8,2,7,3,4,{4}3h[4:1],
{16}6-2[8:1],5,7,4,{8}6,{16}3,3,8,2,7,4x,5,4x,6,4x,
{8}3/7,2/1w5b[8:1],{4}6b/5b,
E
